Today is a free download without charge Download

Невероятное путешествие мистера Спивета / The Young and Prodigious T.S. Spivet (Жан-Пьер Жёне/ Jean-Pierre Jeunet)[2013.,драма, приключения, семейный] BDRip [720p]

Reply to topic
 
Author
Message

sashau ®

Gender:

Longevity: 9 years 4 months

Posts: 3497

Торрент-статистика

Post 26-Sep-2014 18:08

[Quote]

Невероятное путешествие мистера Спивета / The Young and Prodigious T.S. Spivet - Год выпуска: 2013
Жанр: драма, приключения, семейный
Производство: США, Франция, Канада
Описание фильма:
История о приключениях 10-летнего гения по имени Т. С. Спивет, избранные работы которого его приятель рискнул отправить в один известный вашингтонский институт. Неожиданно Спивету звонят из этого института с приглашением приехать забрать престижную награду и заодно выступить с докладом. Мальчик сбегает из дома, но ему нужно проехать через всю страну…
Режиссер: Жан-Пьер Жёне
Актеры: Хелена Бонем Картер, Роберт Мэйллет, Джулиан Ричингс, Джуди Дэвис, Каллум Кит Ренни, Ниам Уилсон, Доминик Пинон, Джейкоб Дейвис, Кайл Кэтлетт, Эмбер Гольдфарб и др.
Продолжительность: 01:45:07
Качество видео: BDRip
Перевод: Одноголосый закадровый, любительский (Pashaup), Одноголосый закадровый, любительский (qwerty)
Язык субтитров: русские, французские, испанские
Вид субтитров: вшитые отключаемые

Дата мировой премьеры: 28 сентября 2013
Дата российской премьеры: 30 октября 2014, «Экспонента»
Видеокодек: MPEG-4 AVC/H.264
Битрейт видео: ~6800 kb/s
Размер кадра: 1280x534
Аудио #1: АС3, 448 Кбит/сек, 48kHz, 6 ch (одноголосый перевод Pashaup)
Аудио #2: АС3, 448 Кбит/сек, 48kHz, 6 ch (одноголосый перевод qwerty)
Аудио #3: DTS, 1509 Кбит/сек, 48kHz, 6 ch (английский)

Рецензии с КиноПоиска:

Сказка странника
Самая невероятная Америка всегда получалась в фильмах европейцев: Кустурица воспел её нервозность в «Снах Аризоны», Вендерс вглядывался в бескрайние пейзажи в «Париж, Техас», Антониони создал лихорадящий трип в «Забриски Пойнт», а Бойл восхищался её просторами в «127 часов». Примеров много, и Америка в картинах случайных странников — сон, мечта, явление, стихия, карта иного мира. Вот и в ленте Жене Америка — карта для путешествия одного гениального мальчика. Она — идеальна; здесь нет ни скуки, ни грязи, ни нищеты. Америка вне времени как идеальный плацдарм для игры. Настольной, с фишками и кубиками.
Сюжет: у Т. С. был брат, Лейтон. Они — близнецы, но совсем непохожи. Лейтон случайно погиб, и семью разбило на несколько осколков. Спустя какое-то время Т. С. интересуется вечным двигателем и создаёт чертежи прототипа. Мальчика приглашают в Вашингтон: хотят вручить премию за гениальное воплощение идеи, будоражащую умы несколько веков. Т. С. решается на ложь и бежит из дома.
В сонме фильмов, возвращающих в детство, прибавление! Автор «Амели» (ушедший с поста режиссёра «Жизни Пи») решил снова открыть свою шкатулку с драгоценностями и рассказать об одиночестве внутри семьи. У Т. С. есть отец — бравый мужчина, опоздавший родиться лет на сто. Есть мама — волшебная женщина, увлекающаяся насекомыми и обладающая даром сжигать тостеры. Есть старшая сестра — скучающая в глуши оторва, мечтающая о победе в конкурсе красоты. Четыре одиночества под одной крышей, но десятилетнему Т. С. тяжелее: у него великий ум и несколько недостатков, которые часто к уму прилипают.. Т. С. мучительно сложно собрать вещи в школьный портфель, он пишет только в красных или фиолетовых блокнотах, он может надеть носки из разных пар, а заговорить для него зачастую сложнее, чем произвести в уме вычисления, которые обычному человеку взорвали бы мозг. Но, несмотря на гениальность и высокий коэффициент интеллекта, маленький Т. С. — ребёнок. Со своей мечтой, целью, желанием любви. Душевного тепла.
Могу ошибаться, но, думаю, эта лента будет в числе одной из любимых среди российских зрителей: в ней есть наивность «Королевства полной луны», сияние чувств «Ста дней после детства» и светлая грусть из «Останься со мной». Когда мама и папа касаются рук друг друга, когда собака по кличке Тапиока хватает светлячков, когда будут рассказаны истории про воробья, а оскалившаяся тыква будет посрамлена — каждый зритель почувствует то тепло, которое билось, сияло, сверкало и заставляло летать. Лет десять, двадцать, тридцать назад. А ещё… надеюсь, родители обнимут своих детей. Это та малость, которой так не хватает, когда ты вырос. Или когда их попросту нет рядом.
(с) sauru-omohide
-------------------------
Жан-Пьер Жёне в своей картине не отступает от привычных ему способов максимально визуализировать каждое озвученное слово, полностью отключая таким образом у зрителя воображалку. Если в «Амели» режиссер с этим перестарался, то в истории про мистера Спивета это отточенное мастерство наконец нашло себе пристанище. «Невероятное путешествие» начинается с дома главного героя, маленького ученого, которого ни во что не ставят ни родные здесь, ни учителя в школе. После того, как погиб его брат, каждый в семье завел себе занятие: мать (Хелена Бонем Картер) изучает несуществующих насекомых, отец (Каллум Кит Ренни), прирожденный ковбой, ухаживает за скотом, а сестра (Ниам Уилсон, известная по серии фильмов «Пила») увлеклась телевизионным шоу. После того, как приятель Т. С. отправил наброски его работ в очень известный институт Вашингтона, юный герой решается оставить семью и отправиться в путешествие по стране. И оно того стоило.
Неплохо соединенная комическая часть с элементами научности, приключения смышленого парня местами действительно смешные, а местами трогательнае. Герою успеваешь и сопереживать, и порадоваться за него. Чего стоит только сцена с милиционером, когда Спивет прикинулся ребенком из Чернобыля и заговорил по-русски. Вот уж нежданчик.
Т. С. или Скворец, как он себя называет, чем-то напомнил Маколея Калкина во времена «Один дома», да и вообще, с уверенностью можно говорить, что оба фильма очень хорошо вписываются в жанр семейной развлекательной комедии. И если в «Один дома» все действие происходило в доме, исходя из названия, то здесь можно увидеть и своего рода «тернии к звездам», и горечь утраты, и всецелое понимание многих тонкостей жизни. Но данный герой больше живет в своем внутреннем мире и переживаниях, постоянно измеряя, придумывая и реализуя свои идеи, забывая о том, какую пару носков одеть будет правильнее. Возможно и нам стоит поучиться у мистера Спивета? Кстати, сам фильм основан на новелле Рейфа Ларсена «The Selected Works of T.S. Spivet».
Немного напоминая недавний фильм «Невероятная жизнь Уолтера Митти», данная картина все же в разы лучше, рассказывая нам о ребенке, который с свои 10-12 лет уже гораздо умнее некоторых взрослых… Не тем, что он придумал «вечный двигатель», а тем, что уже так многое понял и через многое прошел.
8 из 10
(с) dilightiiish

Отчёт MediaInfo:

Общее
Уникальный идентификатор : 225553129952087648721041456378245380580 (0xA9AFF3E44F9C83D4AFAA9525E7A179E4)
Полное имя : F:\razd\The.Young.and.Prodigious.T.S.Spivet.2013.BDRip.720p.mkv
Формат : Matroska
Версия формата : Version 4 / Version 2
Размер файла : 6,76 Гбайт
Продолжительность : 1 ч. 45 м.
Общий поток : 9202 Кбит/сек
Дата кодирования : UTC 2014-09-24 08:39:15
Программа кодирования : mkvmerge v6.5.0 ('Isn't she lovely') built on Oct 20 2013 12:50:05
Библиотека кодирования : libebml v1.3.0 + libmatroska v1.4.1
Видео
Идентификатор : 1
Формат : AVC
Формат/Информация : Advanced Video Codec
Профиль формата : [url=mailto:[email protected]][email protected][/url]
Параметр CABAC формата : Да
Параметр ReFrames формата : 12 кадров
Идентификатор кодека : V_MPEG4/ISO/AVC
Продолжительность : 1 ч. 45 м.
Битрейт : 6800 Кбит/сек
Ширина : 1280 пикселей
Высота : 534 пикселя
Соотношение сторон : 2,40:1
Режим частоты кадров : Постоянный
Частота кадров : 23,976 кадра/сек
Цветовое пространство : YUV
Субдискретизация насыщенности : 4:2:0
Битовая глубина : 8 бит
Тип развёртки : Прогрессивная
Бит/(Пиксели*Кадры) : 0.415
Размер потока : 4,86 Гбайт (72%)
Библиотека кодирования : x264 core 129 r2245+704+36 8e61944 tMod+MixAQ [[email protected]:2:0 X86_64]
Настройки программы : cabac=1 / ref=12 / deblock=1:-2:-2 / analyse=0x3:0x133 / me=umh / subme=11 / psy=1 / fade_compensate=0.00 / psy_rd=1.00:0.15 / mixed_ref=1 / me_range=32 / chroma_me=1 / trellis=2 / 8x8dct=1 / cqm=0 / deadzone=21,11 / fast_pskip=0 / chroma_qp_offset=-3 / threads=12 / lookahead_threads=2 / sliced_threads=0 / nr=0 / decimate=1 / interlaced=0 / bluray_compat=0 / constrained_intra=0 / fgo=0 / bframes=8 / b_pyramid=2 / b_adapt=2 / b_bias=0 / direct=3 / weightb=1 / open_gop=0 / weightp=2 / keyint=250 / keyint_min=23 / scenecut=40 / intra_refresh=0 / rc=2pass / mbtree=0 / bitrate=6800 / ratetol=1.0 / qcomp=0.75 / qpmin=0 / qpmax=69 / qpstep=4 / cplxblur=20.0 / qblur=0.5 / ip_ratio=1.40 / pb_ratio=1.30 / aq=3 / aq-strength=0.70 / aq-sensitivity=10.00 / aq-ifactor=1.00 / aq-pfactor=1.00 / aq-bfactor=1.00 / aq2=0
Язык : English
Default : Да
Forced : Нет
Аудио #1
Идентификатор : 2
Формат : AC-3
Формат/Информация : Audio Coding 3
Расширение режима : CM (complete main)
Параметр Endianness формата : Big
Идентификатор кодека : A_AC3
Продолжительность : 1 ч. 45 м.
Вид битрейта : Постоянный
Битрейт : 448 Кбит/сек
Каналы : 6 каналов
Расположение каналов : Front: L C R, Side: L R, LFE
Частота : 48,0 КГц
Битовая глубина : 16 бит
Метод сжатия : С потерями
Размер потока : 337 Мбайт (5%)
Заголовок : pashaup
Язык : Russian
Default : Да
Forced : Нет
Аудио #2
Идентификатор : 3
Формат : AC-3
Формат/Информация : Audio Coding 3
Расширение режима : CM (complete main)
Параметр Endianness формата : Big
Идентификатор кодека : A_AC3
Продолжительность : 1 ч. 45 м.
Вид битрейта : Постоянный
Битрейт : 448 Кбит/сек
Каналы : 6 каналов
Расположение каналов : Front: L C R, Side: L R, LFE
Частота : 48,0 КГц
Битовая глубина : 16 бит
Метод сжатия : С потерями
Размер потока : 337 Мбайт (5%)
Заголовок : qwerty
Язык : Russian
Default : Нет
Forced : Нет
Аудио #3
Идентификатор : 4
Формат : DTS
Формат/Информация : Digital Theater Systems
Режим : 16
Параметр Endianness формата : Big
Идентификатор кодека : A_DTS
Продолжительность : 1 ч. 45 м.
Вид битрейта : Постоянный
Битрейт : 1509 Кбит/сек
Каналы : 6 каналов
Расположение каналов : Front: L C R, Side: L R, LFE
Частота : 48,0 КГц
Битовая глубина : 24 бит
Метод сжатия : С потерями
Размер потока : 1,11 Гбайт (16%)
Язык : English
Default : Нет
Forced : Нет
Текст #1
Идентификатор : 5
Формат : UTF-8
Идентификатор кодека : S_TEXT/UTF8
Идентификатор кодека/Информация : UTF-8 Plain Text
Заголовок : Denniel Palmer
Язык : Russian
Default : Нет
Forced : Нет
Текст #2
Идентификатор : 6
Формат : UTF-8
Идентификатор кодека : S_TEXT/UTF8
Идентификатор кодека/Информация : UTF-8 Plain Text
Язык : French
Default : Нет
Forced : Нет
Текст #3
Идентификатор : 7
Формат : UTF-8
Идентификатор кодека : S_TEXT/UTF8
Идентификатор кодека/Информация : UTF-8 Plain Text
Язык : Spanish
Default : Нет
Forced : Нет
Скриншоты:
                   
Other forum [Profile] [PM]
Similar theme
Forum Topic Author Torrent Replies Last Post
./templates/default/images/folder_dl.gif Фильмы 2001-2010 Невероятная жизнь Уолтера Митти / The Secret Life of Walter Mitty (Бен Стиллер / Ben Stiller, 2013, Приключения, мелодрама, драма, комедия, фэнтези) WEB-DL [H.264/1080p-LQ] Omen
1 | 0

0 | 1126

36

2014-03-26 22:37
Omen Latest
Display posts from previous:    
Reply to topic

The time now is: Today 11:32

All times are GMT + 3 Hours



You cannot post new topics in this forum
You cannot reply to topics in this forum
You cannot edit your posts in this forum
You cannot delete your posts in this forum
You cannot vote in polls in this forum
You cannot attach files in this forum
You cannot download files in this forum