Today is a free download without charge Download

Тариф на спасение (Георгий Солдатов, Николай Кузьмин [2012, Россия, Мелодрама, HDTV 1080i]

Reply to topic
 
Author
Message

Omen ®

Longevity: 8 years 10 months

Posts: 181086

Торрент-статистика

Post 23-Sep-2014 23:00

[Quote]

Тариф на спасение
Год выпуска: 2012
Производство: Россия, Высшие курсы кино и телевидения ВГИК, Мастерская Юрия Кара
Жанр: Мелодрама
Продолжительность: ~00:58:04
Субтитры: нет
Режиссёр: Георгий Солдатов, Николай Кузьмин
В ролях: Дмитрий Воронин, Юлия Латышева, Сергей Баумцвейгер, Петр Ариничев, Олег Чудницов, Игорь Свиргун, Александр Пятков, Евгений Неделин, Александр Синельщиков
Описание: Молодой парень, не обремененный моральными принципами, попадает на стажировку в спасательный отряд, чтобы написать разоблачительную статью для газеты. Он думает, что весело проведет здесь время, пока не попадает на первый вызов...


Качество: HDTV 1080i
Контейнер: TS
Видео: MPEG4 Video (H264) 1920x1080, ~ 6831 Кбит/сек, 25.00fps 0.132 bit/pixel
Аудио: MP2, 2 ch, 48,0 КГц, 256 Кбит/с
Сторонней рекламы нет!

MediaInfo

ОбщееИдентификатор : 1 (0x1)Полное имя : F:\Фильмы торренты\Tarif.na.spasenie.2012.HDTV.(1080i).MediaClub.tsФормат : MPEG-TSРазмер файла : 3,03 ГбайтПродолжительность : 58 м.Режим общего битрейта : ПеременныйОбщий поток : 7458 Кбит/сек
ВидеоИдентификатор : 69 (0x45)Идентификатор меню : 1 (0x1)Формат : AVCФормат/Информация : Advanced Video CodecПрофиль формата : [email protected]Параметр CABAC формата : ДаПараметр ReFrames формата : 3 кадраИдентификатор кодека : 27Продолжительность : 58 м.Битрейт : 6831 Кбит/секШирина : 1920 пикселейВысота : 1080 пикселейСоотношение сторон : 16:9Частота кадров : 25,000 кадров/секСтандарт вещания : ComponentЦветовое пространство : YUVСубдискретизация насыщенности : 4:2:0Битовая глубина : 8 битТип развёртки : ЧересстрочнаяПорядок развёртки : Верхнее поле первоеБит/(Пиксели*Кадры) : 0.132Размер потока : 2,77 Гбайт (92%)Основные цвета : BT.709Характеристики трансфера : BT.709Коэффициенты матрицы : BT.709
АудиоИдентификатор : 68 (0x44)Идентификатор меню : 1 (0x1)Формат : MPEG AudioВерсия формата : Version 1Профиль формата : Layer 2Идентификатор кодека : 3Продолжительность : 58 м.Вид битрейта : ПостоянныйБитрейт : 256 Кбит/секКаналы : 2 каналаЧастота : 48,0 КГцМетод сжатия : С потерямиРазмер потока : 106 Мбайт (3%)Язык : Russian
Раздача группы:
Отдельное спасибо nikolspup за предоставление материала.

Скриншот c названием фильма

Скриншоты

Other forum [Profile] [PM]
Display posts from previous:    
Reply to topic

The time now is: Today 20:57

All times are GMT + 3 Hours



You cannot post new topics in this forum
You cannot reply to topics in this forum
You cannot edit your posts in this forum
You cannot delete your posts in this forum
You cannot vote in polls in this forum
You cannot attach files in this forum
You cannot download files in this forum