Today is a free download without charge Download

Роман в письмах (Константин Статский) [2011, Россия, Мелодрама, HDTV 1080i]

Reply to topic
 
Author
Message

Omen ®

Longevity: 8 years 10 months

Posts: 181086

Торрент-статистика

Post 22-Sep-2014 23:02

[Quote]

Роман в письмах
Год выпуска: 2011
Производство: Россия, ПЦ "Фабула", Кинокомпания "Тессей"
Жанр: Мелодрама
Продолжительность: ~01:29:36
Субтитры: нет
Режиссёр: Константин Статский
В ролях: Ольга Иванова, Андрей Фролов, Анатолий Котенёв, Денис Пьянов, Анна Носатова
Описание: Юная поэтесса Татьяна приезжает в Москву, чтобы поступить в литературный институт. Столица встречает ее неприветливо: сначала обманывает таксист, затем ее пытаются обокрасть. Все меняет случайная встреча с молодым архитектором Денисом, вызвавшимся подвезти растерянную девушку. Пятиминутный разговор в машине творит чудо: два странных, не от мира сего человека – поэтесса и незадачливый архитектор – понимают, что нашли друг друга. Неужели вот оно – счастье?
Но герои теряют друг друга в большом городе. Для Тани начинается черная полоса. Она не поступает в институт и идет работать домработницей. Дочка владельцев дома Катя поверяет героине свою тайну – о страстной и безответной влюбленности в чудаковатого юношу. Катя не в силах придумать, как обратить на себя его внимание. Танины стихи подсказывают ей выход. Она просит Таню в знак дружбы писать от ее имени письма. Таня берется помочь, не зная, что пишет тому самому архитектору Денису, которого полюбила с первого взгляда!

Качество: HDTV 1080i
Контейнер: TS
Видео: MPEG4 Video (H264) 1920x1080, ~ 11.3 Mbps, 25.00fps 0.218 bit/pixel
Аудио: MP2, 2 ch, 48,0 КГц, 192 Кбит/с
Сторонней рекламы нет!

MediaInfo

GeneralID : 1 (0x1)Complete name : Roman.v.pismah.2011.HDTV.1080i.tsFormat : MPEG-TSFile size : 7.62 GiBDuration : 1h 30mnOverall bit rate mode : VariableOverall bit rate : 12.1 Mbps
VideoID : 1001 (0x3E9)Menu ID : 1 (0x1)Format : AVCFormat/Info : Advanced Video CodecFormat profile : [email protected] settings, CABAC : YesFormat settings, ReFrames : 3 framesCodec ID : 27Duration : 1h 30mnBit rate : 11.3 MbpsWidth : 1 920 pixelsHeight : 1 080 pixelsDisplay aspect ratio : 16:9Frame rate : 25.000 fpsStandard : ComponentColor space : YUVChroma subsampling : 4:2:0Bit depth : 8 bitsScan type : InterlacedScan order : Top Field FirstBits/(Pixel*Frame) : 0.218Stream size : 7.12 GiB (93%)Color primaries : BT.709Transfer characteristics : BT.709Matrix coefficients : BT.709
AudioID : 1002 (0x3EA)Menu ID : 1 (0x1)Format : MPEG AudioFormat version : Version 1Format profile : Layer 2Codec ID : 3Duration : 1h 30mnBit rate mode : ConstantBit rate : 192 KbpsChannel(s) : 2 channelsSampling rate : 48.0 KHzCompression mode : LossyStream size : 124 MiB (2%)Language : RussianЯзык

Скриншот c названием фильма

Скриншоты

Other forum [Profile] [PM]
Display posts from previous:    
Reply to topic

The time now is: Today 14:26

All times are GMT + 3 Hours



You cannot post new topics in this forum
You cannot reply to topics in this forum
You cannot edit your posts in this forum
You cannot delete your posts in this forum
You cannot vote in polls in this forum
You cannot attach files in this forum
You cannot download files in this forum