Today is a free download without charge Download

Discovery Science: Существа внутри нас / Discovery Science: Creatures Inside Us (2010) SATRip

Reply to topic
 
Author
Message

Omen ®

Longevity: 7 years 10 months

Posts: 181087

Торрент-статистика

Post 22-Sep-2014 21:49

[Quote]

Discovery Science: Существа внутри нас
Discovery Science: Creatures Inside Us
- Русское название: Существа внутри нас
Оригинальное название: Creatures Inside Us
Режиссер / Телекомпания: Энтони Лак / Workaholic Productions Inc.
Выпущено: США, Discovery Studios
Год выпуска: 2010
Жанр: Документальный
Описание:
Прямо сейчас на всех нас и внутри нас живут 100 триллионов живых организмов. Каждый из нас - это планета, на которой кишит жизнь, это выглядит не красиво. На нас нападают армии крошечных существ, от которых может стать по меньшей мере не уютно. Так почему же мы ещё живы? Однако новые исследования могут изменить наш взгляд на этих интервентов. Дело в том, что многие из этих существ - микробы, и они необходимы, чтобы мы оставались в живых. Наша жизнь зависит от их присутствия. Как такое возможно? Неужели эти бесчисленные легионы помогают нашему выживанию? Кто они - эти микробы, которые считают наше тело своим домом? Какие тайны нам откроют существа внутри нас?

Продолжительность: 00:44:03
Качество видео: SATRip
Перевод: Одноголосый закадровый, профессиональный
Видеокодек: Xvid
Битрейт видео: ~1 484 kb/s
Размер кадра: 704x400
Формат аудио: Русский, MP3, 2 ch, 128 kb/s

MediaInfo:

General
Complete name : M:\Торренты\Документальные\Существа внутри нас.avi
Format : AVI
Format/Info : Audio Video Interleave
File size : 511 MiB
Duration : 44mn 3s
Overall bit rate : 1 621 Kbps
Writing library : VirtualDub build 35491/release
Video
ID : 0
Format : MPEG-4 Visual
Format profile : Advanced [email protected]
Format settings, BVOP : 2
Format settings, QPel : No
Format settings, GMC : No warppoints
Format settings, Matrix : Default (H.263)
Muxing mode : Packed bitstream
Codec ID : XVID
Codec ID/Hint : XviD
Duration : 44mn 3s
Bit rate : 1 484 Kbps
Width : 704 pixels
Height : 400 pixels
Display aspect ratio : 16:9
Frame rate : 25.000 fps
Color space : YUV
Chroma subsampling : 4:2:0
Bit depth : 8 bits
Scan type : Progressive
Compression mode : Lossy
Bits/(Pixel*Frame) : 0.211
Stream size : 468 MiB (92%)
Writing library : XviD 64
Audio
ID : 1
Format : MPEG Audio
Format version : Version 1
Format profile : Layer 3
Mode : Joint stereo
Mode extension : MS Stereo
Codec ID : 55
Codec ID/Hint : MP3
Duration : 44mn 3s
Bit rate mode : Constant
Bit rate : 128 Kbps
Channel(s) : 2 channels
Sampling rate : 48.0 KHz
Compression mode : Lossy
Stream size : 40.3 MiB (8%)
Alignment : Split accross interleaves
Interleave, duration : 40 ms (1.00 video frame)
Interleave, preload duration : 500 ms
Скриншоты:
         
         
Other forum [Profile] [PM]
Display posts from previous:    
Reply to topic

The time now is: Today 23:10

All times are GMT + 3 Hours



You cannot post new topics in this forum
You cannot reply to topics in this forum
You cannot edit your posts in this forum
You cannot delete your posts in this forum
You cannot vote in polls in this forum
You cannot attach files in this forum
You cannot download files in this forum