Сегодня идет свободное скачивание без начисления Download

Покровские ворота (Михаил Козаков) [1982 г., Комедия, DVDRip] [H.264]

Ответить на тему
 
Автор
Сообщение

Omen ®

Стаж: 6 лет

Сообщений: 184329

Торрент-статистика

Пост 19-Янв-2012 19:16

[Цитировать]

Покровские ворота - Русское название: Покровские ворота
Год выпуска: 1982
Жанр: Комедия
-Описание фильма:
Лирическая ретро-комедия о москвичах 50-х годов, живущих в коммунальной квартире в доме у Покровских Ворот.
По одноименной пьесе Леонида Зорина.
-Режиссер: Михаил Козаков-Актеры:
Олег Меньшиков, Леонид Броневой, Софья Пилявская, Елена Коренева, Татьяна Догилева, Евгений Моргунов, Анатолий Равикович, Игорь Дмитриев, Наталья Крачковская, Инна Ульянова, Эммануил Геллер, Марина Дюжева, Михаил Козаков, Римма Маркова, Ирина Шмелева, Александр Пятков, Виктор Борцов, Елизавета Никищихина, Владимир Пицек, Элла Ярошевская, Валентина Воилкова, А. Коняшин, Светлана Швайко.-Продолжительность: 2 серии = 01:02:38 + 01:08:37- -Контейнер: MKV
Видеокодек: MPEG-4 AVC/H.264
Битрейт видео: ~1700 Kbps 25.00fps
Размер кадра: 720 x 536
Качество видео: DVDRip-AVC
Аудиокодек: AC3 5.1
Битрейт аудио: Dolby AC3 48000Hz 448 Kbps Front: L C R, Side: L R, LFE -

Media Info

Код:
Общее
Уникальный идентификатор : 325484565245751913028667197981614495276 (0xF4DE0C0C6758F85B54F322F95F8D562C)
Полное имя : Покровские ворота - 1 серия.mkv
Формат : Matroska
Версия формата : Version 2
Размер файла : 965 Мбайт
Продолжительность : 1 ч. 2 м.
Общий поток : 2154 Кбит/сек
Название фильма : 1 серия
Дата кодирования : UTC 2011-12-26 22:21:08
Программа кодирования : Lavf53.28.100
Библиотека кодирования : Lavf53.28.100
COMMENT : rip by smithland
Видео
Идентификатор : 1
Формат : AVC
Формат/Информация : Advanced Video Codec
Профиль формата : [url=mailto:[email protected]][email protected][/url]
Параметр CABAC формата : Да
Параметр ReFrames формата : 5 кадров
Идентификатор кодека : V_MPEG4/ISO/AVC
Продолжительность : 1 ч. 2 м.
Битрейт : 1700 Кбит/сек
Ширина : 720 пикс.
Высота : 536 пикс.
Соотношение сторон : 4:3
Соотношение сторон в оригинале : 4:3
Режим частоты кадров : Переменный
Частота кадров : 25,000 кадр/сек
Цветовое пространство : YUV
Подвыборка цветности : 4:2:0
Битовая глубина : 8 бит
Тип развёртки : Прогрессивная
Бит/(Пиксели*Кадры) : 0.176
Размер потока : 745 Мбайт (77%)
Библиотека кодирования : x264 core 120 r2120
Настройки программы : cabac=1 / ref=6 / deblock=1:-1:-1 / analyse=0x3:0x133 / me=esa / subme=9 / psy=1 / psy_rd=1.50:0.50 / mixed_ref=0 / me_range=24 / chroma_me=1 / trellis=2 / 8x8dct=1 / cqm=0 / deadzone=21,11 / fast_pskip=1 / chroma_qp_offset=-4 / threads=6 / sliced_threads=0 / nr=0 / decimate=0 / interlaced=0 / bluray_compat=0 / constrained_intra=0 / bframes=4 / b_pyramid=1 / b_adapt=1 / b_bias=0 / direct=3 / weightb=1 / open_gop=1 / weightp=2 / keyint=250 / keyint_min=25 / scenecut=80 / intra_refresh=0 / rc_lookahead=40 / rc=abr / mbtree=1 / bitrate=1700 / ratetol=1.0 / qcomp=0.60 / qpmin=10 / qpmax=69 / qpstep=4 / vbv_maxrate=20000 / vbv_bufsize=20000 / nal_hrd=none / ip_ratio=1.40 / aq=1:1.00
Язык : Russian
Аудио
Идентификатор : 2
Формат : AC-3
Формат/Информация : Audio Coding 3
Расширение режима : CM (complete main)
Идентификатор кодека : A_AC3
Продолжительность : 1 ч. 2 м.
Вид битрейта : Постоянный
Битрейт : 448 Кбит/сек
Каналы : 6 каналов
Расположение каналов : Front: L C R, Side: L R, LFE
Частота : 48,0 КГц
Битовая глубина : 16 бит
Метод сжатия : С потерями
Задержка видео : 255 мс.
Размер потока : 201 Мбайт (21%)
Язык : English
Меню
00:00:00.000 : :
00:05:00.000 : :
00:10:00.000 : :
00:15:00.000 : :
00:20:00.000 : :
00:25:00.000 : :
00:30:00.000 : :
00:35:00.000 : :
00:40:00.000 : :
00:45:00.000 : :
00:50:00.000 : :
00:55:00.000 : :
01:00:00.000 : :
********************
Общее
Уникальный идентификатор : 138122362992726180743444809320765411057 (0x67E96644D3CAE20B97D85ECFE6BD4EF1)
Полное имя : Покровские ворота - 2 серия.mkv
Формат : Matroska
Версия формата : Version 2
Размер файла : 1,03 Гбайт
Продолжительность : 1 ч. 8 м.
Общий поток : 2142 Кбит/сек
Дата кодирования : UTC 2011-12-28 00:51:18
Программа кодирования : Lavf53.28.100
Библиотека кодирования : Lavf53.28.100
Видео
Идентификатор : 1
Формат : AVC
Формат/Информация : Advanced Video Codec
Профиль формата : [url=mailto:[email protected]][email protected][/url]
Параметр CABAC формата : Да
Параметр ReFrames формата : 5 кадров
Идентификатор кодека : V_MPEG4/ISO/AVC
Продолжительность : 1 ч. 8 м.
Битрейт : 1700 Кбит/сек
Ширина : 720 пикс.
Высота : 536 пикс.
Соотношение сторон : 4:3
Соотношение сторон в оригинале : 4:3
Режим частоты кадров : Переменный
Частота кадров : 25,000 кадр/сек
Цветовое пространство : YUV
Подвыборка цветности : 4:2:0
Битовая глубина : 8 бит
Тип развёртки : Прогрессивная
Бит/(Пиксели*Кадры) : 0.176
Размер потока : 811 Мбайт (77%)
Библиотека кодирования : x264 core 120 r2120
Настройки программы : cabac=1 / ref=6 / deblock=1:-1:-1 / analyse=0x3:0x133 / me=esa / subme=9 / psy=1 / psy_rd=1.50:0.50 / mixed_ref=0 / me_range=24 / chroma_me=1 / trellis=2 / 8x8dct=1 / cqm=0 / deadzone=21,11 / fast_pskip=1 / chroma_qp_offset=-4 / threads=6 / sliced_threads=0 / nr=0 / decimate=0 / interlaced=0 / bluray_compat=0 / constrained_intra=0 / bframes=4 / b_pyramid=1 / b_adapt=1 / b_bias=0 / direct=3 / weightb=1 / open_gop=1 / weightp=2 / keyint=250 / keyint_min=25 / scenecut=80 / intra_refresh=0 / rc_lookahead=40 / rc=abr / mbtree=1 / bitrate=1700 / ratetol=1.0 / qcomp=0.60 / qpmin=10 / qpmax=69 / qpstep=4 / vbv_maxrate=20000 / vbv_bufsize=20000 / nal_hrd=none / ip_ratio=1.40 / aq=1:1.00
Язык : Russian
Аудио
Идентификатор : 2
Формат : AC-3
Формат/Информация : Audio Coding 3
Расширение режима : CM (complete main)
Идентификатор кодека : A_AC3
Продолжительность : 1 ч. 8 м.
Вид битрейта : Постоянный
Битрейт : 448 Кбит/сек
Каналы : 6 каналов
Расположение каналов : Front: L C R, Side: L R, LFE
Частота : 48,0 КГц
Битовая глубина : 16 бит
Метод сжатия : С потерями
Размер потока : 220 Мбайт (21%)
Язык : English
Меню
00:00:00.000 : :
00:05:00.000 : :
00:10:00.000 : :
00:15:00.000 : :
00:20:00.000 : :
00:25:00.000 : :
00:30:00.000 : :
00:35:00.000 : :
00:40:00.000 : :
00:45:00.000 : :
00:50:00.000 : :
00:55:00.000 : :
01:00:00.000 : :
01:05:00.000 : :
-Скриншоты:
               
Вне форума [Профиль] [ЛС]
Показать сообщения:    
Ответить на тему

Текущее время: Сегодня 16:09

Часовой пояс: GMT + 3



Вы не можете начинать темы
Вы не можете отвечать на сообщения
Вы не можете редактировать свои сообщения
Вы не можете удалять свои сообщения
Вы не можете голосовать в опросах
Вы не можете прикреплять файлы к сообщениям
Вы не можете скачивать файлы