Today is a free download without charge Download

Микрополис (Александр Храмцов, Инна Евленникова) [2007, Детский, Компьютерная анимация, DVD5]

Reply to topic
 
Author
Message

sashau ®

Gender:

Longevity: 8 years 10 months

Posts: 3497

Торрент-статистика

Post 16-Sep-2014 18:21

[Quote]

Микрополис - Русское название: Микрополис
Год выпуска: 2007
Жанр: Детский, Компьютерная анимация
Продолжительность: 01:14:00 ( 7 серий х 10 мин + анонсы)
Режиссер: Александр Храмцов, Инна Евленникова
В ролях: Крошка Ми, Микрошка и др.
Описание:
Кто бы мог подумать, что на обыкновенной кухне может поместиться целый город со своими небоскребами, школами, транспортом и маленькими жителями? Этот город называется Микрополис, он настолько мал, что разглядеть его можно только под микроскопом.
Каждая серия этого необычного мультсериала рассказывает историю дружбы и противоборства на просторах "Великой Кухни" двух кланов: микробики Крошка Ми, Микрошка и их друзья против токсинов Taксончика, Босса, Т-70 и других.
Героев ждет масса приключений, из которых зритель узнает, откуда берутся микробы, какие бактерии полезны, а каких нужно избегать. Яркий познавательный мультфильм будет интересен не только детям, но и их родителям, которые узнают много нового об этом микромире.
Серии:
1. Микроистория
2. Секрет пузырьков
3. Шлемо мания
4. Ужасно-прекрасный друг
5. Спасти золотого рыбёнка
6. На задворках вселенной
7. Падал сладкий снег
Дополнительно:
Ролики - Библиотекарь 2: Копи царя Соломона, Ребятам о зверятах, Бернард.
Качество видео: DVD5
Формат видео: DVD Video
Видео кодек: MPEG2
Аудио кодек: AC3
Видео: PAL 4:3 (720x576) VBR
Аудио: Russian (Dolby AC3, 6 ch)

DVDInfo:

Видео
Идентификатор : 224 (0xE0)
Формат : MPEG Video
Версия формата : Version 2
Профиль формата : [email protected]
Параметр BVOP формата : Да
Параметр матрицы формата : По умолчанию
Параметры GOP формата : M=2, N=15
Вид битрейта : Постоянный
Битрейт : 6000 Кбит/сек
Ширина : 720 пикс.
Высота : 576 пикс.
Соотношение сторон : 4:3
Частота кадров : 25,000 кадр/сек
Стандарт вещания : PAL
Цветовое пространство : YUV
Подвыборка цветности : 4:2:0
Битовая глубина : 8 бит
Тип развёртки : Чересстрочная
Порядок развёртки : Верхнее поле первое
Метод сжатия : С потерями
Бит/(Пиксели*Кадры) : 0.579
Размер потока : 433 Мбайт (95%)
Аудио
Идентификатор : 128 (0x80)
Формат : AC-3
Формат/Информация : Audio Coding 3
Расширение режима : CM (complete main)
Вид битрейта : Постоянный
Битрейт : 192 Кбит/сек
Канал(ы) : 2 канала(ов)
Расположение каналов : Front: L R
Частота : 48,0 КГц
Битовая глубина : 16 бит
Метод сжатия : С потерями
Размер потока : 13,9 Мбайт (3%)
Скриншоты:
         
         
Other forum [Profile] [PM]
Similar theme
Forum Topic Author Torrent Replies Last Post
./templates/default/images/folder_dl.gif Современная проза, классика, поэзия Радио России | Театр у микрофона выпуск №19 [2006] [MP3] UndegraundMen
1 | 0

0 | 1098

1

2013-04-16 00:00
UndegraundMen Latest
./templates/default/images/folder_dl.gif Современная проза, классика, поэзия Радио России | Театр у микрофона выпуск №21 [2006] [MP3] UndegraundMen
1 | 0

0 | 1109

1

2013-04-16 00:00
UndegraundMen Latest
./templates/default/images/folder_dl.gif Современная проза, классика, поэзия Радио России | Театр у микрофона выпуск №28 [2006] [MP3] UndegraundMen
1 | 0

0 | 1063

1

2013-04-20 00:03
UndegraundMen Latest
./templates/default/images/folder_dl.gif Современная проза, классика, поэзия Радио России | Театр у микрофона выпуск №30 [2006] [MP3] UndegraundMen
1 | 0

0 | 1026

1

2013-04-21 00:01
UndegraundMen Latest
Display posts from previous:    
Reply to topic

The time now is: Today 10:59

All times are GMT + 3 Hours



You cannot post new topics in this forum
You cannot reply to topics in this forum
You cannot edit your posts in this forum
You cannot delete your posts in this forum
You cannot vote in polls in this forum
You cannot attach files in this forum
You cannot download files in this forum