Today is a free download without charge Download

Цена измены / Derailed (Микаэль Хофстрём / Mikael Hafstrom) [2005, США, Великобритания, триллер, драма, BDRip 720p] DVO Dub Sub Rus + Original Eng

Reply to topic
 
Author
Message

Delia ®

Gender:

Longevity: 10 years

Posts: 1821

Торрент-статистика

Post 18-Jan-2012 16:11

[Quote]

Цена изменыDerailed Страна: США, Великобритания
Студия: Miramax Films
Жанр: триллер, драма
Год выпуска: 2005
Продолжительность: 01:52:32
Перевод: Профессиональный (двухголосый закадровый)
Перевод 2: Профессиональный (дублированный)
Cубтитры: русские , английские
Оригинальная аудиодорожка: английский
Режиссер: Микаэль Хофстрём / Mikael Hafstrom
В ролях: Клайв Оуэн, Дженнифер Энистон, Венсан Кассель, Мелисса Джордж, Эддисон Тимлин, Том Конти, Дэнис О`Харе, Ричард Лиф, Иксзибит
Описание: Каждый день Чарльза Шайна, служащего рекламного агентства, похож на предыдущий. Каждое утро он садится на поезд до Манхэттена и едет на работу. У него есть жена Диана, работающая учительницей в местной школе, и дочь Эми, больная диабетом.
Однажды утром, когда ему пришлось ухаживать за Эми, Чарльз опаздывает на поезд и вынужден сесть на следующий. Казалось бы, что в этом особенного?
Однако в поезде он случайно оказывается сидящим напротив обворожительной женщины по имени Люсинда, которая предлагает ему заплатить за билет, на который у Чарльза не хватило денег. Их легкий флирт поначалу выглядит вполне невинно. Однако когда Чарльз и Люсинда уединяются в отеле, все начинает идти наперекосяк.
В дубляже присутствуют двухголосые вставки на режиссёрские места.

Тип релиза: BDRip 720p
Контейнер: MKV
Видео: МPEG-4 AVC, 1280х544 (2,35:1) , 23,976fps, ~ 4499 kbps avg , [email protected]
Аудио: Русский, AC3, 5.1 (L,R,C,Ls,Rs+LFE), 48 кГц, 640 kbps avg
Аудио 2: Русский, AC3, 5.1 (L,R,C,Ls,Rs+LFE), 48 кГц, 384 kbps avg
Аудио 3: English, AC3, 5.1 (L,R,C,Ls,Rs+LFE), 48 кГц, 640 kbps avg
Формат субтитров: softsub (SRT)

x264

Код:
x264 [info]: frame I:1613  Avg QP:21.33  size: 61162
x264 [info]: frame P:28923 Avg QP:22.20  size: 35372
x264 [info]: frame B:131371 Avg QP:23.22  size: 20349

MediaInfo

Код:
Общее
Уникальный идентификатор         : 244002782669920190600965546265251809762 (0xB7913A00370BDE6AA196252A57AA09E2)
Полное имя                       : E:\торрент\Cena.izmeny.2005.H264.BDRip720p.mkv
Формат                           : Matroska
Версия формата                   : Version 2
Размер файла                     : 4,84 Гбайт
Продолжительность                : 1 ч. 52 м.
Общий поток                      : 6162 Кбит/сек
Дата кодирования                 : UTC 2012-01-18 07:29:29
Программа кодирования            : mkvmerge v5.2.1 ('A Far Off Place') built on Jan  2 2012 23:21:10
Библиотека кодирования           : libebml v1.2.3 + libmatroska v1.3.0
Видео
Идентификатор                    : 1
Формат                           : AVC
Формат/Информация                : Advanced Video Codec
Профиль формата                  : [email protected]
Параметр CABAC формата           : Да
Параметр ReFrames формата        : 9 кадров
Идентификатор кодека             : V_MPEG4/ISO/AVC
Продолжительность                : 1 ч. 52 м.
Битрейт                          : 4499 Кбит/сек
Ширина                           : 1280 пикселей
Высота                           : 544 пикселя
Соотношение сторон               : 2,35:1
Частота кадров                   : 23,976 кадра/сек
Цветовое пространство            : YUV
Субдискретизация насыщенности    : 4:2:0
Битовая глубина                  : 8 бит
Тип развёртки                    : Прогрессивная
Бит/(Пиксели*Кадры)              : 0.269
Размер потока                    : 3,44 Гбайт (71%)
Библиотека кодирования           : x264 core 120 r2120 0c7dab9
Настройки программы              : cabac=1 / ref=9 / deblock=1:-3:-2 / analyse=0x3:0x113 / me=umh / subme=10 / psy=1 / psy_rd=1.05:0.15 / mixed_ref=1 / me_range=32 / chroma_me=1 / trellis=2 / 8x8dct=1 / cqm=0 / deadzone=21,11 / fast_pskip=0 / chroma_qp_offset=-3 / threads=6 / sliced_threads=0 / nr=0 / decimate=0 / interlaced=0 / bluray_compat=0 / constrained_intra=0 / bframes=7 / b_pyramid=2 / b_adapt=2 / b_bias=0 / direct=3 / weightb=1 / open_gop=0 / weightp=2 / keyint=230 / keyint_min=22 / scenecut=40 / intra_refresh=0 / rc_lookahead=80 / rc=2pass / mbtree=1 / bitrate=4499 / ratetol=1.0 / qcomp=0.70 / qpmin=0 / qpmax=69 / qpstep=4 / cplxblur=20.0 / qblur=0.5 / vbv_maxrate=50000 / vbv_bufsize=62500 / nal_hrd=none / ip_ratio=1.40 / aq=2:0.80
Язык                             : English
Аудио #1
Идентификатор                    : 2
Формат                           : AC-3
Формат/Информация                : Audio Coding 3
Расширение режима                : CM (complete main)
Идентификатор кодека             : A_AC3
Продолжительность                : 1 ч. 52 м.
Вид битрейта                     : Постоянный
Битрейт                          : 640 Кбит/сек
Каналы                           : 6 каналов
Расположение каналов             : Front: L C R, Side: L R, LFE
Частота                          : 48,0 КГц
Битовая глубина                  : 16 бит
Метод сжатия                     : С потерями
Размер потока                    : 515 Мбайт (10%)
Язык                             : Russian
Аудио #2
Идентификатор                    : 3
Формат                           : AC-3
Формат/Информация                : Audio Coding 3
Расширение режима                : CM (complete main)
Идентификатор кодека             : A_AC3
Продолжительность                : 1 ч. 52 м.
Вид битрейта                     : Постоянный
Битрейт                          : 384 Кбит/сек
Каналы                           : 6 каналов
Расположение каналов             : Front: L C R, Side: L R, LFE
Частота                          : 48,0 КГц
Битовая глубина                  : 16 бит
Метод сжатия                     : С потерями
Размер потока                    : 309 Мбайт (6%)
Язык                             : Russian
Аудио #3
Идентификатор                    : 4
Формат                           : AC-3
Формат/Информация                : Audio Coding 3
Расширение режима                : CM (complete main)
Идентификатор кодека             : A_AC3
Продолжительность                : 1 ч. 52 м.
Вид битрейта                     : Постоянный
Битрейт                          : 640 Кбит/сек
Каналы                           : 6 каналов
Расположение каналов             : Front: L C R, Side: L R, LFE
Частота                          : 48,0 КГц
Битовая глубина                  : 16 бит
Метод сжатия                     : С потерями
Размер потока                    : 515 Мбайт (10%)
Язык                             : English
Текст #1
Идентификатор                    : 5
Формат                           : UTF-8
Идентификатор кодека             : S_TEXT/UTF8
Идентификатор кодека/Информация  : UTF-8 Plain Text
Язык                             : Russian
Текст #2
Идентификатор                    : 6
Формат                           : UTF-8
Идентификатор кодека             : S_TEXT/UTF8
Идентификатор кодека/Информация  : UTF-8 Plain Text
Язык                             : English

Скриншоты

 
     

_________________
Человек – это канат, натянутый между животным и сверхчеловеком, – канат над пропастью.
В человеке ценно то, что он мост, а не цель. Фридрих Ницше


Last edited by Delia on 2012-01-18 17:13; edited 1 time in total
Other forum [Profile] [PM]
Display posts from previous:    
Reply to topic

The time now is: Today 10:34

All times are GMT + 3 Hours



You cannot post new topics in this forum
You cannot reply to topics in this forum
You cannot edit your posts in this forum
You cannot delete your posts in this forum
You cannot vote in polls in this forum
You cannot attach files in this forum
You cannot download files in this forum