Today is a free download without charge Download

Колобок (2012) HDRip

Reply to topic
 
Author
Message

sashau ®

Gender:

Longevity: 8 years 10 months

Posts: 3497

Торрент-статистика

Post 07-Sep-2014 08:01

[Quote]

Колобок - Год выпуска: 2012
Жанр: Детский, Рисованная анимация, Компьютерная анимация
Описание:
Современная экранизация детской сказки "Колобок".
Мультфильм произведен на студии "Пилот" в 2012 году, и на мой взгляд являет собой самый красивый, красочный и музыкальный мультфильм про Колобка из всех существующих на данный момент.
Режиссер: Марина Карпова
Персонажи: Дед, бабка, колобок, заяц, волк, медведь, лиса
Продолжительность: 00:11:46
Качество видео: HDRip
Видеокодек: MPEG-4 Visual (XviD)
Битрейт видео: ~1580 kb/s
Размер кадра: 720x400 (16:9)
Аудиокодек: AC3 2.0
Битрейт аудио: 192kb/s, 48,0 Гц, 16 бит

МедиаИнфо:

Общее
Кол-во : 290
Кол-во потоков такого типа : 1
Тип потока : General
Тип потока : Общее
Идентификатор типа потока : 0
Inform : AVI: 150 Мбайт, 11 м.
Кол-во видеопотоков : 1
Кол-во аудиопотоков : 1
Video_Format_List : MPEG-4 Visual
Video_Format_WithHint_List : MPEG-4 Visual (XviD)
Видеокодеки : XviD
Audio_Format_List : AC-3
Audio_Format_WithHint_List : AC-3
Аудиокодеки : AC3
Полное имя : H:\Торрент\Видео\Мультики\Kolobok 2012.avi
Имя папки : H:\Торрент\Видео\Мультики
Имя файла : Kolobok 2012
Расширение : avi
Формат : AVI
Формат : AVI
Формат/Информация : Audio Video Interleave
Формат/Используется в : avi
Коммерческое название : AVI
Интернет-тип носителя : video/vnd.avi
Чередующаяся : Yes
Кодек : AVI
Кодек : AVI
Кодек/Информация : Audio Video Interleave
Кодек/Используется в : avi
Размер файла : 157259918
Размер файла : 150 Мбайт
Размер файла : 150 Мбайт
Размер файла : 150 Мбайт
Размер файла : 150 Мбайт
Размер файла : 150,0 Мбайт
Продолжительность : 706240
Продолжительность : 11 м.
Продолжительность : 11 м. 46 с. 240 мс.
Продолжительность : 11 м.
Продолжительность : 00:11:46.240
Общий поток : 1781377
Общий поток : 1781 Кбит/сек
Размер потока : 866222
Размер потока : 846 Кбайт (1%)
Размер потока : 846 Кбайт
Размер потока : 846 Кбайт
Размер потока : 846 Кбайт
Размер потока : 845,9 Кбайт
Размер потока : 846 Кбайт (1%)
Пропорции потока : 0.00551
Заголовок : 2012
Название фильма : 2012
Дата файла : UTC 2014-09-05 09:44:18.542
Дата файла (местная) : 2014-09-05 13:44:18.542
Дата изменения файла : UTC 2014-09-05 09:44:44.560
Дата изменения файла (местная) : 2014-09-05 13:44:44.560
Видео
Кол-во : 277
Кол-во потоков такого типа : 1
Тип потока : Video
Тип потока : Видео
Идентификатор типа потока : 0
StreamOrder : 0
Inform : 1580 Кбит/сек, 720*400 (16:9), в 25,000 кадров/сек, MPEG-4 Visual (XviD) (Advanced [email protected]) (BVOP1)
Идентификатор : 0
Идентификатор : 0
Формат : MPEG-4 Visual
Коммерческое название : MPEG-4 Visual
Профиль формата : Advanced [email protected]
Настройки формата : BVOP1
Параметр BVOP формата : 1
Параметр BVOP формата : 1
Параметр QPel формата : No
Параметр QPel формата : Нет
Параметр GMC формата : 0
Параметр GMC формата : Без точки перехода
Параметр матрицы формата : Default (MPEG)
Параметр матрицы формата : Default (MPEG)
Интернет-тип носителя : video/MP4V-ES
Идентификатор кодека : XVID
Идентификатор кодека/Подсказка : XviD
Кодек : XVID
Кодек : XviD
Кодек/Семейство : MPEG-4V
Кодек/Информация : XviD project
Кодек/CC : XVID
Профиль кодека : Advanced [email protected]
Настройки кодека : BVOP
Параметр пакетного потока данных кодека : No
Параметр BVOP кодека : Yes
Параметр QPel кодека : No
Параметр GMC кодека : 0
Параметр GMC кодека : Без точки перехода
Параметр матрицы кодека : Default (MPEG)
Продолжительность : 706240
Продолжительность : 11 м.
Продолжительность : 11 м. 46 с. 240 мс.
Продолжительность : 11 м.
Продолжительность : 00:11:46.240
Битрейт : 1579564
Битрейт : 1580 Кбит/сек
Ширина : 720
Ширина : 720 пикселей
Высота : 400
Высота : 400 пикселей
Пропорции пикселя : 1.000
Соотношение сторон : 1.800
Соотношение сторон : 16:9
Частота кадров : 25.000
Частота кадров : 25,000 кадров/сек
Счётчик кадров : 17656
Разрешение : 8
Разрешение : 8 бит
Колориметрия : 4:2:0
Цветовое пространство : YUV
Субдискретизация насыщенности : 4:2:0
Битовая глубина : 8
Битовая глубина : 8 бит
Тип развёртки : Progressive
Тип развёртки : Прогрессивная
Переплетение : PPF
Переплетение : Прогрессивная
Метод сжатия : Lossy
Метод сжатия : С потерями
Бит/(Пиксели*Кадры) : 0.219
Задержка : 0
Задержка : 00:00:00.000
Размер потока : 139443936
Размер потока : 133 Мбайт (89%)
Размер потока : 133 Мбайт
Размер потока : 133 Мбайт
Размер потока : 133 Мбайт
Размер потока : 133,0 Мбайт
Размер потока : 133 Мбайт (89%)
Пропорции потока : 0.88671
Библиотека кодирования : XviD0050
Библиотека кодирования : XviD 1.2.1 (UTC 2008-12-04)
Библиотека кодирования/Имя : XviD
Библиотека кодирования/Version : 1.2.1
Библиотека кодирования/Дата : UTC 2008-12-04
Аудио
Кол-во : 252
Кол-во потоков такого типа : 1
Тип потока : Audio
Тип потока : Аудио
Идентификатор типа потока : 0
StreamOrder : 1
Inform : 192 Кбит/сек, 48,0 КГц, 16 бит, 2 канала, AC-3
Идентификатор : 1
Идентификатор : 1
Формат : AC-3
Формат/Информация : Audio Coding 3
Коммерческое название : AC-3
Расширение режима : CM (complete main)
Параметр Endianness формата : Big
Идентификатор кодека : 2000
Кодек : AC3
Кодек : AC3
Кодек/Семейство : AC3
Кодек/Информация : Dolby AC3
Кодек/CC : 2000
Продолжительность : 706240
Продолжительность : 11 м.
Продолжительность : 11 м. 46 с. 240 мс.
Продолжительность : 11 м.
Продолжительность : 00:11:46.240
Вид битрейта : CBR
Вид битрейта : Постоянный
Битрейт : 192000
Битрейт : 192 Кбит/сек
Каналы : 2
Каналы : 2 канала
Расположение каналов : Front: L R
Расположение каналов : 2/0/0
ChannelLayout : L R
Частота : 48000
Частота : 48,0 КГц
Количество образцов : 33899520
Разрешение : 16
Разрешение : 16 бит
Битовая глубина : 16
Битовая глубина : 16 бит
Метод сжатия : Lossy
Метод сжатия : С потерями
Задержка : 0
Задержка : 00:00:00.000
Задержка в оригинале : Stream
Задержка в оригинале : 'Сырой' поток
Задержка видео : 0
Задержка видео : 0
Размер потока : 16949760
Размер потока : 16,2 Мбайт (11%)
Размер потока : 16 Мбайт
Размер потока : 16 Мбайт
Размер потока : 16,2 Мбайт
Размер потока : 16,16 Мбайт
Размер потока : 16,2 Мбайт (11%)
Пропорции потока : 0.10778
Выравнивание : Aligned
Выравнивание : Соединение по промежуткам
Продолжительность промежутка : 1.00
Продолжительность промежутка : 40
Продолжительность промежутка : 40 мс. (1,00 видеокадр)
Время предзагрузки промежутка : 512
Время предзагрузки промежутка : 512 мс.
bsid : 4
dialnorm : -31
dialnorm/String : -31 dB
compr : -11.02
compr/String : -11.02 dB
dsurmod : 0
acmod : 2
lfeon : 0
dialnorm_Average : -31
dialnorm_Average/String : -31 dB
dialnorm_Minimum : -31
dialnorm_Minimum/String : -31 dB
dialnorm_Maximum : -31
dialnorm_Maximum/String : -31 dB
dialnorm_Count : 390
compr_Average : -11.02
compr_Average/String : -11.02 dB
compr_Minimum : -11.02
compr_Minimum/String : -11.02 dB
compr_Maximum : -11.02
compr_Maximum/String : -11.02 dB
compr_Count : 390
Скриншоты:
       
       
Other forum [Profile] [PM]
Display posts from previous:    
Reply to topic

The time now is: Today 11:22

All times are GMT + 3 Hours



You cannot post new topics in this forum
You cannot reply to topics in this forum
You cannot edit your posts in this forum
You cannot delete your posts in this forum
You cannot vote in polls in this forum
You cannot attach files in this forum
You cannot download files in this forum