Today is a free download without charge Download

Паршивые овцы (Сергей Чекалов) [2010, боевик, драма, военный, BDRip-AVC]

Reply to topic
 
Author
Message

DED ®

Gender:

Longevity: 7 years 1 month

Posts: 4244

Location: СССР

Торрент-статистика

Post 25-Aug-2014 17:13

[Quote]

--Паршивые овцы-«Победа на всех одна»-- Год выпуска: 2010
Страна: Россия, Украина
Производство: Film.UA
Жанр: боевик, драма, военный
Продолжительность: 01:59:30
Озвучивание: Оригинал-Режиссер: Сергей Чекалов-В ролях: Михаил Тарабукин (Штопор), Кирилл Рубцов ('Пикассо' / Умаев), Мухтар Гусенгаджиев (Муса), Олеся Жураковская (Ольга), Сергей Деревянко (Алексей, лейтенант НКВД), Владимир Толоконников (Архип), Виктор Соловьев (Батя), Андрей Фролов (Крот), Алексей Дмитриев (Палач), Виталий Кищенко (Рычигин), Алексей Лонгин (Сыч), Нина Касторф (Надежда), ...-Описание: История разворачивается во время Великой Отечественной войны. Семерым заключенным удается бежать из «зоны» и укрыться в маленькой, забытой Богом и людьми, деревушке. Едва переведя дух, герои сталкиваются с новым испытанием - в окрестностях появляется немецкий диверсионный отряд. И волею судьбы вчерашние «враги» Родины превращаются в ее яростных защитников.-- --Качество видео: BDRip-AVC (Исходник: Blu-Ray Disc | Немецкая лицензия)
Формат видео: MKV
Видео кодек: H.264
Аудио кодек: AC3
Видео: 1024x576 (1.78:1), 25.000 fps, MPEG-4 AVC, ~2376 Kbps avg, 0.161 bit/pixel
Аудио: [RUS] 48.0 kHz, AC3 Dolby Digital, 2/0 (L,R) ch, ~192.00 kbps avg
Субтитры: нет
Дополнительно: Сохранены оригинальные чаптеры, как на Blu-Ray.
--

Media Info

General
Unique ID : 243762653126611149191615434006808330792 (0xB762FAB345C56ACA915AF9C7183D8228)
Complete name : W:\O.S.A.\Торренты\Завершенные торренты\Parshivye.Ovcy.BDRipAVC.mkv
Format : Matroska
File size : 2.14 GiB
Duration : 1h 59mn
Overall bit rate : 2 568 Kbps
Encoded date : UTC 2012-06-06 06:59:19
Writing application : mkvmerge v3.3.0 ('Language') gebaut am Mar 24 2010 14:59:24
Writing library : libebml v0.8.0 + libmatroska v0.9.0
Video
ID : 1
Format : AVC
Format/Info : Advanced Video Codec
Format profile : [email protected]
Format settings, CABAC : Yes
Format settings, ReFrames : 6 frames
Format settings, GOP : M=9, N=26
Codec ID : V_MPEG4/ISO/AVC
Duration : 1h 59mn
Bit rate : 2 376 Kbps
Width : 1 024 pixels
Height : 576 pixels
Display aspect ratio : 16:9
Frame rate : 25.000 fps
Color space : YUV
Chroma subsampling : 4:2:0
Bit depth : 8 bits
Scan type : Progressive
Bits/(Pixel*Frame) : 0.161
Stream size : 1.94 GiB (91%)
Title : Паршивые овцы BDRip by SC Kosmos
Writing library : x264 core 125 r2200 999b753
Encoding settings : cabac=1 / ref=6 / deblock=1:-3:-3 / analyse=0x3:0x113 / me=umh / subme=10 / psy=1 / psy_rd=1.00:0.10 / mixed_ref=1 / me_range=32 / chroma_me=1 / trellis=2 / 8x8dct=1 / cqm=0 / deadzone=21,11 / fast_pskip=1 / chroma_qp_offset=-3 / threads=12 / lookahead_threads=2 / sliced_threads=0 / nr=0 / decimate=1 / interlaced=0 / bluray_compat=0 / constrained_intra=0 / bframes=8 / b_pyramid=2 / b_adapt=1 / b_bias=0 / direct=2 / weightb=1 / open_gop=0 / weightp=2 / keyint=250 / keyint_min=25 / scenecut=40 / intra_refresh=0 / rc_lookahead=45 / rc=2pass / mbtree=1 / bitrate=2376 / ratetol=1.0 / qcomp=0.60 / qpmin=0 / qpmax=69 / qpstep=4 / cplxblur=20.0 / qblur=0.5 / ip_ratio=1.40 / aq=1:1.00
Language : Russian
Color primaries : BT.709-5, BT.1361, IEC 61966-2-4, SMPTE RP177
Transfer characteristics : BT.709-5, BT.1361
Matrix coefficients : BT.709-5, BT.1361, IEC 61966-2-4 709, SMPTE RP177
Audio
ID : 2
Format : AC-3
Format/Info : Audio Coding 3
Mode extension : CM (complete main)
Codec ID : A_AC3
Duration : 1h 59mn
Bit rate mode : Constant
Bit rate : 192 Kbps
Channel(s) : 2 channels
Channel positions : Front: L R
Sampling rate : 48.0 KHz
Bit depth : 16 bits
Compression mode : Lossy
Stream size : 164 MiB (7%)
Language : Russian
Menu
00:00:00.000 : en:Chapter 01
00:10:00.000 : en:Chapter 02
00:20:00.000 : en:Chapter 03
00:30:00.000 : en:Chapter 04
00:40:00.000 : en:Chapter 05
00:50:00.000 : en:Chapter 06
01:00:00.000 : en:Chapter 07
01:10:00.000 : en:Chapter 08
01:20:00.000 : en:Chapter 09
01:30:00.000 : en:Chapter 10
01:40:00.000 : en:Chapter 11
01:50:00.000 : en:Chapter 12
01:59:27.640 : en:Chapter 13

Скриншоты

         
-- --

_________________

==============================
IGNOSCITO SAEPE ALTERI, NUNQUAM TIBI
Other forum [Profile] [PM]

DED ®

Gender:

Longevity: 7 years 1 month

Posts: 4244

Location: СССР

Торрент-статистика

Post 25-Aug-2014 19:06 (after 1 hour 52 minutes)

[Quote]

Геннадич писал(а):
Этот фильм по-моему 3-х или 4-х серийный!!!
ДА — 4-х серийный, но в блюрике скроили в 1, а это с него и рип!!!

_________________

==============================
IGNOSCITO SAEPE ALTERI, NUNQUAM TIBI
Other forum [Profile] [PM]
Display posts from previous:    
Reply to topic

The time now is: Today 02:46

All times are GMT + 3 Hours



You cannot post new topics in this forum
You cannot reply to topics in this forum
You cannot edit your posts in this forum
You cannot delete your posts in this forum
You cannot vote in polls in this forum
You cannot attach files in this forum
You cannot download files in this forum