Today is a free download without charge Download

Поддубный (Глеб Орлов) [2014, Россия, драма, спорт, биография, BDRip 720p] + Original Rus

Reply to topic
 
Author
Message

Omen ®

Longevity: 8 years 10 months

Posts: 181086

Торрент-статистика

Post 25-Aug-2014 17:01

[Quote]

Поддубный
Страна: Россия
Жанр: драма, спорт, биография
Год выпуска: 2014
Продолжительность: 01:57:41
Перевод: Не требуется
Cубтитры: нет
Оригинальная аудиодорожка: русский
Режиссер: Глеб Орлов
В ролях: Михаил Пореченков, Дени Лаван, Владимир Ильин, Юрий Колокольников, Роман Мадянов, Александр Михайлов, Катерина Шпица, Максим Сапрыкин, Петр Крылов, Андрей Дебрин
Описание: Его называли Чемпион чемпионов. О силе и волевом характере Поддубного слагали легенды. И в 50 великий борец играючи одолевал молодых атлетов, а вопросах чести и справедливости не знал компромиссов. И лишь любовь смогла уложить Русского Богатыря на обе лопатки…

Сэмпл: http://multi-up.com/994620
Тип релиза: BDRip 720p
Контейнер: MKV
Видео: 1280x544 at 25.000 fps , ~5200 kbps avg
Аудио: Russian: 48 kHz/16-bit, DTS, 3/2 (L,C,R,l,r) + LFE ch, ~1510 kbps

MediaInfo

Код:
General
Unique ID                                : 221686934251005083018412776051187848114 (0xA6C759BA100D27EE9968B007BEBF13B2)
Complete name                            : C:\Users\Dante\Desktop\Поддубный.mkv
Format                                   : Matroska
Format version                           : Version 4 / Version 2
File size                                : 5.52 GiB
Duration                                 : 1h 57mn
Overall bit rate                         : 6 713 Kbps
Encoded date                             : UTC 2014-08-25 10:01:39
Writing application                      : mkvmerge v6.1.0 ('Old Devil') built on Mar  4 2013 09:10:42
Writing library                          : libebml v1.3.0 + libmatroska v1.4.0
Video
ID                                       : 1
Format                                   : AVC
Format/Info                              : Advanced Video Codec
Format profile                           : [email protected]
Format settings, CABAC                   : Yes
Format settings, ReFrames                : 5 frames
Codec ID                                 : V_MPEG4/ISO/AVC
Duration                                 : 1h 57mn
Bit rate                                 : 5 200 Kbps
Width                                    : 1 280 pixels
Height                                   : 544 pixels
Display aspect ratio                     : 2.35:1
Frame rate mode                          : Constant
Frame rate                               : 25.000 fps
Color space                              : YUV
Chroma subsampling                       : 4:2:0
Bit depth                                : 8 bits
Scan type                                : Progressive
Bits/(Pixel*Frame)                       : 0.299
Stream size                              : 4.17 GiB (76%)
Writing library                          : x264 core 130 r2273 b3065e6
Encoding settings                        : cabac=1 / ref=5 / deblock=1:-1:-1 / analyse=0x3:0x113 / me=umh / subme=8 / psy=1 / psy_rd=1.00:0.10 / mixed_ref=1 / me_range=16 / chroma_me=1 / trellis=1 / 8x8dct=1 / cqm=0 / deadzone=21,11 / fast_pskip=1 / chroma_qp_offset=-3 / threads=6 / lookahead_threads=1 / sliced_threads=0 / nr=0 / decimate=1 / interlaced=0 / bluray_compat=0 / constrained_intra=0 / bframes=3 / b_pyramid=2 / b_adapt=2 / b_bias=0 / direct=3 / weightb=1 / open_gop=0 / weightp=2 / keyint=250 / keyint_min=25 / scenecut=40 / intra_refresh=0 / rc_lookahead=50 / rc=2pass / mbtree=1 / bitrate=5200 / ratetol=1.0 / qcomp=0.60 / qpmin=0 / qpmax=69 / qpstep=4 / cplxblur=20.0 / qblur=0.5 / ip_ratio=1.40 / aq=1:1.00
Language                                 : English
Default                                  : Yes
Forced                                   : No
Audio
ID                                       : 2
Format                                   : DTS
Format/Info                              : Digital Theater Systems
Mode                                     : 16
Format settings, Endianness              : Big
Codec ID                                 : A_DTS
Duration                                 : 1h 57mn
Bit rate mode                            : Constant
Bit rate                                 : 1 510 Kbps
Channel(s)                               : 6 channels
Channel positions                        : Front: L C R, Side: L R, LFE
Sampling rate                            : 48.0 KHz
Bit depth                                : 24 bits
Compression mode                         : Lossy
Stream size                              : 1.24 GiB (22%)
Language                                 : Russian
Default                                  : Yes
Forced                                   : No

Скриншоты

Other forum [Profile] [PM]

uschakov.yura

Gender:

Longevity: 9 years 5 months

Posts: 400

Location: Рыбинск Ярославской области

Торрент-статистика

Post 25-Aug-2014 18:28 (after 1 hour 27 minutes)

[Quote]

Конечно Россия - жутко иностранное кино, уж будьте любезны, обеспечьте перевод зарубежного кино ( в разделе отечественные фильмы мне кажется будет повтор)

_________________
uschakov.yura
Other forum [Profile] [PM]

Dracula

Longevity: 7 years 11 months

Posts: 11008

Торрент-статистика

Post 25-Aug-2014 18:32 (after 4 minutes)

Топик был перенесен из форума Зарубежное кино (HD Video) в форум Наше кино (HD Video)


Геннадич
 
Display posts from previous:    
Reply to topic

The time now is: Today 14:17

All times are GMT + 3 Hours



You cannot post new topics in this forum
You cannot reply to topics in this forum
You cannot edit your posts in this forum
You cannot delete your posts in this forum
You cannot vote in polls in this forum
You cannot attach files in this forum
You cannot download files in this forum