Today is a free download without charge Download

Безумно грустная принцесса / Silene smutna princezna (Борживой Земан/Borivoj Zeman) [1968, Сказка, Мюзикл, Мелодрама, Комедия, Семейный, DVDRip] [DivX/720p-LQ] [CZ / RU Sub]

Reply to topic
 
Author
Message

sashau ®

Gender:

Longevity: 9 years 4 months

Posts: 3497

Торрент-статистика

Post 24-Aug-2014 09:47

[Quote]

Безумно грустная принцесса / Silene smutna princezna- Год выпуска: 1968
Производство: Чехословакия
Жанр: Сказка, Мюзикл, Мелодрама, Комедия, Семейный
Описание фильма:
Короли соседних государств решили поженить своих детей, чтобы между этими странами всегда был мир. Но у молодых людей другие планы — каждый из них хочет увидеть своего суженого заранее. Переодетые, они влюбляются в друга, не зная, кто есть кто. Чтобы избежать свадьбы, принцесса притворяется грустной, ее не могут рассмешить даже фильмы Чарли Чаплина. Король ищет спасителя, который бы заставил ее смеяться.
Режиссер: Борживой Земан
Актеры: Гелена Вондрачкова, Вацлав Некар, Богуш Загорский, Ярослав Марван, Йозеф Кемр, Франтишек Дибарбора, Ольдржих Дедек, Стелла Зазворкова, Бранислав Корень
Продолжительность: 01:22:56
Качество видео: DVDRip
Перевод: Отсутствует (субтитры)
Язык: CZ
Язык субтитров: Русский
Вид субтитров: Отдельным файлом

Дата мировой премьеры: 7 июня 1968
Дата выхода DVD релиза: 01 июля 2006 (Bonton)
Видеокодек: DivX 5
Битрейт видео: ~2 394 Kbps
Размер кадра: [email protected] (Upscale)
Аудиокодек: MP3 2.0
Битрейт аудио: 128 Kbps

MediaInfo:

Полное имя : C:\Videos\Безумно грустная принцесса\Sílene smutná princezna.avi
Формат : AVI
Формат/Информация : Audio Video Interleave
Профиль формата : OpenDML
Размер файла : 1,47 GiB
Продолжительность : 1h 22mn
Общий поток : 2 537 Kbps
Программа кодирования : MEncoder SVN-r30881(20100311-gcc4.3.3)
Библиотека кодирования : MPlayer
Video
Идентификатор : 0
Формат : MPEG-4 Visual
Профиль формата : [email protected]
Параметр BVOP формата : Ne
Параметр QPel формата : Ne
Параметр GMC формата : 0 warppoint
Параметр матрицы формата : Default (H.263)
Идентификатор кодека : DX50
Идентификатор кодека/Подсказка : DivX 5
Продолжительность : 1h 22mn
Битрейт : 2 394 Kbps
Ширина : 1 280pixely
Высота : 720pixely
Соотношение сторон : 4:3
Частота кадров : 30,000 fps
Цветовое пространство : YUV
Субдискретизация насыщенности : 4:2:0
Битовая глубина : 8 bits
Тип развёртки : Progressive
Бит/(Пиксели*Кадры) : 0.087
Размер потока : 1,39 GiB (94%)
Библиотека кодирования : Lavc52.58.0
Audio
Идентификатор : 1
Формат : MPEG Audio
Версия формата : Version 1
Профиль формата : Layer 3
Режим : Joint stereo
Расширение режима : MS Stereo
Идентификатор кодека : 55
Идентификатор кодека/Подсказка : MP3
Продолжительность : 1h 22mn
Битрейт : 128 Kbps
Каналы : 2 kanály
Частота : 44,1 KHz
Размер потока : 75,9 MiB (5%)
Продолжительность промежутка : 26 ms (0.78 video frames)
Время предзагрузки промежутка : 522 ms
Скриншоты:
       
       
Other forum [Profile] [PM]
Similar theme
Forum Topic Author Torrent Replies Last Post
./templates/default/images/folder_dl.gif Психология, Тренинг, Саморазвитие Александр Свияш | Как разумные люди создают безумный мир. Негативные эмоции. Поймать и обезвредить (2018) [PDF] }{@R0N
1 | 0

0 | 2262

2

2019-03-17 22:54
}{@R0N Latest
Display posts from previous:    
Reply to topic

The time now is: Today 11:06

All times are GMT + 3 Hours



You cannot post new topics in this forum
You cannot reply to topics in this forum
You cannot edit your posts in this forum
You cannot delete your posts in this forum
You cannot vote in polls in this forum
You cannot attach files in this forum
You cannot download files in this forum