Today is a free download without charge Download

Метеор на ринге (Борис Дежкин) [1970, мультфильм, DVDRip]

Reply to topic
 
Author
Message

DED ®

Gender:

Longevity: 7 years

Posts: 4131

Location: СССР

Торрент-статистика

Post 19-Aug-2014 19:12

[Quote]

--Метеор на ринге-- Год выпуска: 1970
Страна: СССР
Производство: Союзмультфильм
Жанр: мультфильм
Продолжительность: 00:18:56
Перевод: Не требуется-Режиссер: Борис Дежкин
Сценаристы: Борис Дёжкин, Сакко Рунге
Оператор: Елена Петрова
Композитор: Александр Варламов
Художники: Борис Дёжкин, Владимир Соболев-Шумовое оформление: А. Баранов-Описание: Главным героями этого увлекательного мультфильма являются всем известные герои, которые раньше снимались в мультфильме «Матч-реванш». Команды «Метеор» и «Вымпел» случайно встречаются в магазине «Спортивные товары». Капитан команды «Метеор» предлагает встретиться в новом матче. Капитан «Вымпела» отказывается от третьего хоккейного матча и предлагает соперникам попробовать себя в новом виде спорта — боксе. Теперь герои обретают новый спорт, они начинают заниматься боксом. Как всегда одни из героев красные, а другие синие. Понаблюдав за тренировкой «Вымпела», «Метеор» начинает готовиться к соревнованиям с удвоенной яростью. Красные всё время пытаются соперничать с синими. Прошёл замечательный боксёрский поединок, в котором победил красный. Вначале сюжета показывается противостояние красных и синих, противостояние должно решить боксёрским поединком. Прошёл поединок, после которого начался торжественный вечер, на котором команды боксёров подружились. Боксёр выступающий в синей форме, в конце концов, подарил своему сопернику золотые перчатки, в знак того, что его соперник очень хороший и смелый боксёр. Такая вот увлекательная история должна быть показана вашим детишкам, которые возьмут много хорошего из этого мультфильма.-- --Качество видео: DVDRip
Формат видео: AVI
Видео кодек: XviD
Аудио кодек: AC3
Видео: 704x528 (1.33:1), 25.000 fps, XviD MPEG-4, ~1825 kbps avg, 0.196 bit/pixel
Аудио: 48.0 kHz, AC3 Dolby Digital, 3/2 (L,C,R,l,r) + LFE ch, ~448.00 kbps avg
Субтитры: нет
--

Media Info

General
Complete name : D:\O.S.A.\Мои видеозаписи\Мультфильмы\Meteor.Na.Ringe.1970.XviD.DVDRip.avi
Format : AVI
Format/Info : Audio Video Interleave
File size : 309 MiB
Duration : 18mn 56s
Overall bit rate : 2 279 Kbps
Writing application : VirtualDubMod 1.5.4.1 (build 2178/release)
Writing library : VirtualDubMod build 2178/release
Video
ID : 0
Format : MPEG-4 Visual
Format profile : Advanced [email protected]
Format settings, BVOP : 1
Format settings, QPel : No
Format settings, GMC : No warppoints
Format settings, Matrix : Custom
Codec ID : XVID
Codec ID/Hint : XviD
Duration : 18mn 56s
Bit rate : 1 825 Kbps
Width : 704 pixels
Height : 528 pixels
Display aspect ratio : 4:3
Frame rate : 25.000 fps
Color space : YUV
Chroma subsampling : 4:2:0
Bit depth : 8 bits
Scan type : Progressive
Compression mode : Lossy
Bits/(Pixel*Frame) : 0.196
Stream size : 247 MiB (80%)
Writing library : XviD 1.2.0.dev47 (UTC 2006-11-01)
Audio
ID : 1
Format : AC-3
Format/Info : Audio Coding 3
Mode extension : CM (complete main)
Codec ID : 2000
Duration : 18mn 53s
Bit rate mode : Constant
Bit rate : 448 Kbps
Channel(s) : 6 channels
Channel positions : Front: L C R, Side: L R, LFE
Sampling rate : 48.0 KHz
Bit depth : 16 bits
Compression mode : Lossy
Delay relative to video : 1ms
Stream size : 60.6 MiB (20%)
Alignment : Split accross interleaves
Interleave, duration : 96 ms (2.40 video frames)
Interleave, preload duration : 96 ms
Language : Russian

Скриншоты

         
-- --

_________________

==============================
IGNOSCITO SAEPE ALTERI, NUNQUAM TIBI
Other forum [Profile] [PM]
Display posts from previous:    
Reply to topic

The time now is: Today 20:27

All times are GMT + 3 Hours



You cannot post new topics in this forum
You cannot reply to topics in this forum
You cannot edit your posts in this forum
You cannot delete your posts in this forum
You cannot vote in polls in this forum
You cannot attach files in this forum
You cannot download files in this forum