Today is a free download without charge Download

Живая сталь / Real Steel (Шон Леви) [2011 г., фантастика, боевик, семейный, BDRip1080p]

Reply to topic
 
Author
Message

sassad ®

Gender:

Longevity: 10 years

Posts: 1214

Location: Галич

Торрент-статистика

Post 11-Jan-2012 20:51

[Quote]

Живая сталь / Real Steel- Год выпуска: 2011
Страна: США, Индия
Жанр: фантастика, боевик, семейный
Продолжительность: 127 мин. / 02:07
Перевод: Профессиональный(дублированный)-Режиссер: Шон Леви
Продюссер: Роберт Земекис, Шон Леви, Сьюзен Монтфорд
Сценарий: Джон Гэйтинс, Дэн Гилрой, Джереми Левин
Бюджет: $110 000 000
Премьера в мире: 6 сентября 2011
PG-13 - Детям до 13 лет просмотр не желателен
7.40 (34 095)

В ролях: Хью Джекман, Дакота Гойо, Эванджелин Лилли, Энтони Маки, Кевин Дюран, Хоуп Дэвис, Джеймс Ребхорн, Марко Руджери, Карл Йун, Ольга Фонда-Описание: События фильма происходят в будущем, где бокс запрещен за негуманностью и заменен боями 2000-фунтовых роботов, управляемых людьми. Бывший боксер, а теперь промоутер, переметнувшийся в Робобокс, решает, что наконец нашел своего чемпиона, когда ему попадается выбракованный, но очень способный робот. Одновременно на жизненном пути героя возникает 11-летний пацан, оказывающийся его сыном. И по мере того, как машина пробивает свой путь к вершине, обретшие друг друга отец и сын учатся дружить.-Качество: BDRip1080p
Формат: MKV
Видео кодек: H.26x
Аудио кодек: AC3
Видео: MPEG-4 AVC, 13.5 Мбит/с, 1920x816
Аудио: Русский (AC3, 6 ch, 448 Кбит/с), английский (DTS, 6 ch, 1510 Кбит/с)

- -

Инфо

Код:
General
Complete name                            : Zhivaja.stal.2011.x264.BDRip.1080p.mkv
Format                                   : Matroska
Format version                           : Version 2
File size                                : 13.6 GiB
Duration                                 : 2h 6mn
Overall bit rate                         : 15.4 Mbps
Movie name                               : UNIONGANG.TV
Encoded date                             : UTC 2012-01-11 15:31:51
Writing application                      : mkvmerge v5.2.1 ('A Far Off Place') built on Jan  2 2012 23:21:10
Writing library                          : libebml v1.2.3 + libmatroska v1.3.0
Video
ID                                       : 1
Format                                   : AVC
Format/Info                              : Advanced Video Codec
Format profile                           : [email protected]
Format settings, CABAC                   : Yes
Format settings, ReFrames                : 4 frames
Codec ID                                 : V_MPEG4/ISO/AVC
Duration                                 : 2h 6mn
Bit rate                                 : 13.5 Mbps
Width                                    : 1 920 pixels
Height                                   : 816 pixels
Display aspect ratio                     : 2.35:1
Frame rate                               : 23.976 fps
Color space                              : YUV
Chroma subsampling                       : 4:2:0
Bit depth                                : 8 bits
Scan type                                : Progressive
Bits/(Pixel*Frame)                       : 0.359
Stream size                              : 11.7 GiB (86%)
Title                                    : DON
Writing library                          : x264 core 116 r2057 0ba8a9c
Encoding settings                        : cabac=1 / ref=3 / deblock=1:-3:-3 / analyse=0x3:0x133 / me=umh / subme=10 / psy=1 / psy_rd=1.00:0.00 / mixed_ref=1 / me_range=32 / chroma_me=1 / trellis=2 / 8x8dct=1 / cqm=0 / deadzone=21,11 / fast_pskip=0 / chroma_qp_offset=-2 / threads=18 / sliced_threads=0 / nr=0 / decimate=0 / interlaced=0 / bluray_compat=0 / constrained_intra=0 / bframes=7 / b_pyramid=2 / b_adapt=2 / b_bias=0 / direct=3 / weightb=1 / open_gop=0 / weightp=2 / keyint=250 / keyint_min=23 / scenecut=40 / intra_refresh=0 / rc_lookahead=40 / rc=2pass / mbtree=0 / bitrate=13500 / ratetol=1.0 / qcomp=0.65 / qpmin=0 / qpmax=40 / qpstep=4 / cplxblur=20.0 / qblur=0.5 / vbv_maxrate=50000 / vbv_bufsize=50000 / nal_hrd=none / ip_ratio=1.25 / pb_ratio=1.25 / aq=1:0.65
Language                                 : English
Audio #1
ID                                       : 2
Format                                   : AC-3
Format/Info                              : Audio Coding 3
Mode extension                           : CM (complete main)
Codec ID                                 : A_AC3
Duration                                 : 2h 6mn
Bit rate mode                            : Constant
Bit rate                                 : 384 Kbps
Channel(s)                               : 6 channels
Channel positions                        : Front: L C R, Side: L R, LFE
Sampling rate                            : 48.0 KHz
Bit depth                                : 16 bits
Compression mode                         : Lossy
Stream size                              : 348 MiB (2%)
Title                                    : Dub
Language                                 : Russian
Audio #2
ID                                       : 3
Format                                   : DTS
Format/Info                              : Digital Theater Systems
Codec ID                                 : A_DTS
Duration                                 : 2h 6mn
Bit rate mode                            : Constant
Bit rate                                 : 1 510 Kbps
Channel(s)                               : 6 channels
Channel positions                        : Front: L C R, Side: L R, LFE
Sampling rate                            : 48.0 KHz
Bit depth                                : 24 bits
Compression mode                         : Lossy
Stream size                              : 1.34 GiB (10%)
Language                                 : English
Text #1
ID                                       : 4
Format                                   : UTF-8
Codec ID                                 : S_TEXT/UTF8
Codec ID/Info                            : UTF-8 Plain Text
Title                                    : Voronin
Language                                 : Russian
Text #2
ID                                       : 5
Format                                   : UTF-8
Codec ID                                 : S_TEXT/UTF8
Codec ID/Info                            : UTF-8 Plain Text
Language                                 : English
Text #3
ID                                       : 6
Format                                   : UTF-8
Codec ID                                 : S_TEXT/UTF8
Codec ID/Info                            : UTF-8 Plain Text
Title                                    : SDH
Language                                 : English
Menu
00:00:00.000                             : en:00:00:00.000
00:03:00.472                             : en:00:03:00.472
00:10:38.304                             : en:00:10:38.304
00:18:50.546                             : en:00:18:50.546
00:24:29.885                             : en:00:24:29.885
00:34:14.761                             : en:00:34:14.761
00:41:22.355                             : en:00:41:22.355
00:48:46.131                             : en:00:48:46.131
00:52:08.709                             : en:00:52:08.709
00:57:15.015                             : en:00:57:15.015
01:05:01.231                             : en:01:05:01.231
01:12:33.974                             : en:01:12:33.974
01:18:26.994                             : en:01:18:26.994
01:26:28.517                             : en:01:26:28.517
01:32:50.773                             : en:01:32:50.773
01:39:19.704                             : en:01:39:19.704
01:48:22.663                             : en:01:48:22.663
01:52:26.865                             : en:01:52:26.865
01:57:21.868                             : en:01:57:21.868
02:00:50.326                             : en:02:00:50.326

Скриншоты

       

_________________
Other forum [Profile] [PM]
Display posts from previous:    
Reply to topic

The time now is: Today 09:04

All times are GMT + 3 Hours



You cannot post new topics in this forum
You cannot reply to topics in this forum
You cannot edit your posts in this forum
You cannot delete your posts in this forum
You cannot vote in polls in this forum
You cannot attach files in this forum
You cannot download files in this forum