Today is a free download without charge Download

Вендетта по-русски (Крестная дочь) / Серии: 1 - 8 из 8 (Олег Туранский) [2011, Детектив, DVDRip]

Reply to topic
 
Author
Message

Relizer ®

Gender:

Longevity: 10 years

Posts: 233

Торрент-статистика

Post 11-Jan-2012 20:10

[Quote]

Вендетта по-русски / Крестная дочь (8 серий из 8) (2011) DVDRip - Русское название: Крестная дочь
Страна: Россия, RWS
Год выпуска: 2011
Жанр: Криминал, Триллер
Перевод: Не требуется

Режиссер: Олег Туранский
Актеры: Анатолий Журавлёв, Николай Добрынин, Константин Соловьев, Евгения Лоза, Митя Лабуш, Александр Тютин, Владимир Яковлев (II), Иван Агапов, Виталий Альшанский, Юрий Шлыков, Рамиль Сабитов, Андрей Стоянов, Николай Коробов, Олег Филипчик, Сергей Белоголовцев, Ирина Чипиженко, Владимир Майсурадзе, Евгения Дмитриева, Степан Самойленко, Алексей Агрызков, Андрей Батуханов, Захар Хунгуреев, Михаил Полицеймако, Сергей Векслер, Денис Юшечкин, Сергей Агафонов (II)
Описание фильма:
По роману «Крестная дочь» Андрея Троицкого. Действие сериала происходит в двух странах – России и вымышленной стране Хаджестан, расположенной где-то в средней Азии. Наркобарон Константин Олейник давно конфликтует со своим хаджестанским поставщиком Фарадом Батыровым. Наконец Олейник решает уничтожить своего конкурента. Заказ на убийство Батырова Олейник передает двум безутешным отцам – летчику Зубову и спецназовцу Суханову. Несколько лет назад Батыров убил наркоманку Галину, которая первому приходилась родной, а второму – крестной дочерью. Киллеры, у которых с Батыровым собственные счеты, отправляются в Хаджестан. В мафиозные разборки оказывается втянута молодая и незадачливая журналистка, которая из любопытства залезает в самолет киллеров…
Продолжительность: 8 х ~ 00:46:06
Качество видео: DVDRip
Релиз от:
Видеокодек: Xvid
Битрейт видео: ~1578 Kbit/s
Размер кадра: 704 x 400
Аудиокодек: AC3 2.0
Битрейт аудио: 128 Kbit/s

MediaInfo

Общее
Полное имя : D:\Торренты\ФИЛЬМЫ торента\Krestnaya.doch.2011.DVDRip\Krestnaya.doch.08.2011.DVDRip.avi
Формат : AVI
Формат/Информация : Audio Video Interleave
Размер файла : 550 Мбайт
Продолжительность : 44 м.
Общий поток : 1713 Кбит/сек
Программа кодирования : VirtualDubMod 1.5.4.1 (build 2178/release)
Библиотека кодирования : VirtualDubMod build 2178/release
Видео
Идентификатор : 0
Формат : MPEG-4 Visual
Профиль формата : Advanced [email protected]
Параметр BVOP формата : 1
Параметр QPel формата : Нет
Параметр GMC формата : Без точки перехода
Параметр матрицы формата : Выборочная
Идентификатор кодека : XVID
Идентификатор кодека/Подсказка : XviD
Продолжительность : 44 м.
Битрейт : 1578 Кбит/сек
Ширина : 704 пикс.
Высота : 400 пикс.
Соотношение сторон : 16:9
Частота кадров : 25,000 кадр/сек
Цветовое пространство : YUV
Подвыборка цветности : 4:2:0
Битовая глубина : 8 бит
Тип развёртки : Прогрессивная
Метод сжатия : С потерями
Бит/(Пиксели*Кадры) : 0.224
Размер потока : 507 Мбайт (92%)
Библиотека кодирования : XviD 1.2.1 (UTC 2008-12-04)
Аудио
Идентификатор : 1
Формат : AC-3
Формат/Информация : Audio Coding 3
Расширение режима : CM (complete main)
Идентификатор кодека : 2000
Продолжительность : 44 м.
Вид битрейта : Постоянный
Битрейт : 128 Кбит/сек
Каналы : 2 канала
Расположение каналов : Front: L R
Частота : 48,0 КГц
Битовая глубина : 16 бит
Метод сжатия : С потерями
Размер потока : 41,1 Мбайт (7%)
Выравнивание : Разделение по промежуткам
Продолжительность промежутка : 96 мс. (2,40 видеокадра)
Время предзагрузки промежутка : 96 ms
Скриншоты:
           
       

_________________
Хк Локомотив #52# Макс ты был моим замечательным другом, пусть земля будет тебе пухом.. #52#07/09/2011- Обращаться с девочкой надо аккуратно, как с ёлочкой...Вырубить и отнести домой:)
Other forum [Profile] [PM]
Display posts from previous:    
Reply to topic

The time now is: Today 18:39

All times are GMT + 3 Hours



You cannot post new topics in this forum
You cannot reply to topics in this forum
You cannot edit your posts in this forum
You cannot delete your posts in this forum
You cannot vote in polls in this forum
You cannot attach files in this forum
You cannot download files in this forum