Сегодня идет свободное скачивание без начисления Download

Транзит / Transit (Антонио Негрет) [2012 г., триллер, драма, криминал, HDRip]

Ответить на тему
 
Автор
Сообщение

sassad ®

Пол:

Стаж: 7 лет 11 месяцев

Сообщений: 1223

Откуда: Галич

Торрент-статистика

Пост 11-Янв-2012 19:47

[Цитировать]

Транзит / Transit-- Год выпуска: 2012
Страна: США
Жанр: триллер, драма, криминал
Продолжительность: 89 мин. / 01:29
Перевод: Профессиональный (двухголосый закадровый)
Режиссер: Антонио Негрет
Продюссер: Кортни Соломон, Моше Дайамант, Йорам Барзилай
Сценарий: Майкл Гилвари
Бюджет: $5 000 000
R - Лицам до 17 лет обязательно присутствие взрослого


В ролях: Джеймс Кэвизел, Диора Бэрд, Элизабет Рём, Джеймс Фрейн, Стерлинг Найт, Хэролд Перрино, Джэйк Черри, Райан Доноху, Бо Брассо, Робби Джонс-Описание: Чтобы перевезти украденные четыре миллиона долларов через дорожный контрольно-пропускной пункт, виновники кровавого ограбления банка используют простую семью, как невольных курьеров. Теперь преступники хотят получить свои деньги назад и не остановятся ни перед чем, чтобы вернуть их.-Доп. информация: Озвучивание: Профессиональное двухголосое (студийное, закадровое) Сергей Дидок и Галина Чиркова, перевод Кейт Дидок и Сергей Дидок.-Качество: HDRip{рип с BDRip (1080p)}
Формат: AVI
Видео кодек: XviD
Аудио кодек: AC3
Видео: XviD, 1770 Кбит/с, 720x304
Аудио: AC3, 6 ch, 448 Кбит/с

--

Инфо

Код:
clipboard | Download | Raw | Embed | Report abuse
Полное имя                       : Tranzit.2011.XviD.HDRip.Kino-Yum.avi
Формат                           : AVI
Формат/Информация                : Audio Video Interleave
Размер файла                     : 1,37 Гбайт
Продолжительность                : 1 ч. 28 м.
Общий поток                      : 2227 Кбит/сек
Название фильма                  : Транзит / Transit / 2011
Режиссёр                         : ed_rez
Жанр                             : Crime | Drama | Thriller
Программа кодирования            : VirtualDubMod 1.5.10.2 (build 2540/release)
Формат оригинала/Имя             : Movie
Правообладатель                  : Р.г. "Кино-Юм"
Видео
Идентификатор                    : 0
Формат                           : MPEG-4 Visual
Профиль формата                  : Advanced [email protected]
Параметр BVOP формата            : 2
Параметр QPel формата            : Нет
Параметр GMC формата             : Без точки перехода
Параметр матрицы формата         : Выборочная
Режим смешивания                 : Сжатый битовый поток
Идентификатор кодека             : XVID
Идентификатор кодека/Подсказка   : XviD
Продолжительность                : 1 ч. 28 м.
Битрейт                          : 1770 Кбит/сек
Ширина                           : 720 пикселей
Высота                           : 304 пикселя
Соотношение сторон               : 2,35:1
Частота кадров                   : 23,976 кадра/сек
Цветовое пространство            : YUV
Субдискретизация насыщенности    : 4:2:0
Битовая глубина                  : 8 бит
Тип развёртки                    : Прогрессивная
Метод сжатия                     : С потерями
Бит/(Пиксели*Кадры)              : 0.337
Размер потока                    : 1,09 Гбайт (79%)
Библиотека кодирования           : XviD 62
Аудио
Идентификатор                    : 1
Формат                           : AC-3
Формат/Информация                : Audio Coding 3
Расширение режима                : CM (complete main)
Идентификатор кодека             : 2000
Продолжительность                : 1 ч. 28 м.
Вид битрейта                     : Постоянный
Битрейт                          : 448 Кбит/сек
Каналы                           : 6 каналов
Расположение каналов             : Front: L C R, Side: L R, LFE
Частота                          : 48,0 КГц
Битовая глубина                  : 16 бит
Метод сжатия                     : С потерями
Размер потока                    : 283 Мбайт (20%)
Выравнивание                     : Разделение по промежуткам
Продолжительность промежутка     : 42  мс. (1,00 видеокадр)
Время предзагрузки промежутка    : 500  мс.
--

Скриншоты

       

_________________

Вне форума [Профиль] [ЛС]
Показать сообщения:    
Ответить на тему

Текущее время: Сегодня 20:31

Часовой пояс: GMT + 3



Вы не можете начинать темы
Вы не можете отвечать на сообщения
Вы не можете редактировать свои сообщения
Вы не можете удалять свои сообщения
Вы не можете голосовать в опросах
Вы не можете прикреплять файлы к сообщениям
Вы не можете скачивать файлы