Today is a free download without charge Download

Всех поймал (Леонид Шварцман) [1989 г., мультфильм, DVB]

Reply to topic
 
Author
Message

Omen ®

Longevity: 7 years 11 months

Posts: 181087

Торрент-статистика

Post 18-Aug-2014 14:00

[Quote]

Всех поймал
Жанр: мультфильм
Год выпуска: 1989
Продолжительность: 00:08:40
Режиссёр: Леонид Шварцман
Описание: мультфильм о том, как два брата-близнеца и маленький сказочный автобус проучили живодёра Швырина и спасли пойманных им животных ...
Доп. информация: огромная благодарность за предоставленный исходник

Трансляция спутникового канала:

Качество видео: DVB
Формат видео: MPEG-PS
Видео: MPEG2 Video, [email protected] (4:3), анаморф, 25 fps, 4900 kbps
Аудио: MPEG Audio, 2 сh, 48 kHz, 192 Kbps

MediaInfo

General
Complete name : D:\Всех поймал. (1989)_DVB by RG multfilms.mpg
Format : MPEG-PS
File size : 323 MiB
Duration : 8mn 40s
Overall bit rate mode : Variable
Overall bit rate : 5 200 Kbps
Video
ID : 224 (0xE0)
Format : MPEG Video
Format version : Version 2
Format profile : [email protected]
Format settings, BVOP : No
Format settings, Matrix : Custom
Format settings, GOP : Variable
Duration : 8mn 40s
Bit rate mode : Variable
Bit rate : 4 905 Kbps
Maximum bit rate : 15.0 Mbps
Width : 544 pixels
Height : 576 pixels
Display aspect ratio : 4:3
Frame rate : 25.000 fps
Color space : YUV
Chroma subsampling : 4:2:0
Bit depth : 8 bits
Scan type : Interlaced
Scan order : Top Field First
Compression mode : Lossy
Bits/(Pixel*Frame) : 0.626
Time code of first frame : 00:00:00:00
Time code source : Group of pictures header
Stream size : 304 MiB (94%)
Audio
ID : 192 (0xC0)
Format : MPEG Audio
Format version : Version 1
Format profile : Layer 2
Duration : 8mn 40s
Bit rate mode : Constant
Bit rate : 192 Kbps
Channel(s) : 2 channels
Sampling rate : 48.0 KHz
Compression mode : Lossy
Stream size : 11.9 MiB (4%)

Скриншоты


Other forum [Profile] [PM]
Display posts from previous:    
Reply to topic

The time now is: Today 05:46

All times are GMT + 3 Hours



You cannot post new topics in this forum
You cannot reply to topics in this forum
You cannot edit your posts in this forum
You cannot delete your posts in this forum
You cannot vote in polls in this forum
You cannot attach files in this forum
You cannot download files in this forum