Today is a free download without charge Download

Воинственные бобры (Александр Беляков, Дмитрий Бабиченко) [1939 г., мультфильм, DVB]

Reply to topic
 
Author
Message

Omen ®

Longevity: 7 years 11 months

Posts: 181087

Торрент-статистика

Post 18-Aug-2014 14:04

[Quote]

Воинственные бобры
Жанр: мультфильм
Год выпуска: 1939
Продолжительность: 00:09:04
Режиссёр: Александр Беляков, Дмитрий Бабиченко
Описание: мультфильм о том, как бобры отстроились после наводнения и прогнали рысь со своего острова.
Доп. информация: огромная благодарность за предоставленный исходник
мультфильм сделан в характерной диснеевской манере

Трансляция спутникового канала:

Качество видео: DVB
Формат видео: MPEG-PS
Видео: MPEG2 Video, [email protected] (4:3), анаморф, 25 fps, 4000 kbps
Аудио: MPEG Audio, 2 сh, 48 kHz, 192 Kbps

MediaInfo

General
Complete name : D:\Воинственные бобры. (1939)_DVB by RG multfilms.mpg
Format : MPEG-PS
File size : 275 MiB
Duration : 9mn 4s
Overall bit rate mode : Variable
Overall bit rate : 4 234 Kbps
Video
ID : 224 (0xE0)
Format : MPEG Video
Format version : Version 2
Format profile : [email protected]
Format settings, BVOP : No
Format settings, Matrix : Custom
Format settings, GOP : Variable
Duration : 9mn 4s
Bit rate mode : Variable
Bit rate : 3 957 Kbps
Maximum bit rate : 15.0 Mbps
Width : 544 pixels
Height : 576 pixels
Display aspect ratio : 4:3
Frame rate : 25.000 fps
Color space : YUV
Chroma subsampling : 4:2:0
Bit depth : 8 bits
Scan type : Interlaced
Scan order : Top Field First
Compression mode : Lossy
Bits/(Pixel*Frame) : 0.505
Time code of first frame : 00:00:00:00
Time code source : Group of pictures header
Stream size : 257 MiB (93%)
Audio
ID : 192 (0xC0)
Format : MPEG Audio
Format version : Version 1
Format profile : Layer 2
Duration : 9mn 4s
Bit rate mode : Constant
Bit rate : 192 Kbps
Channel(s) : 2 channels
Sampling rate : 48.0 KHz
Compression mode : Lossy
Stream size : 12.5 MiB (5%)

Скриншоты


Other forum [Profile] [PM]
Similar theme
Forum Topic Author Torrent Replies Last Post
./templates/default/images/folder_dl.gif Техническая и научно-популярная литература Резник Н.И. (ред.) - Методика и организация деятельности командиров воинских частей, войсковых психологов, специалистов Ц(П)ППир, командиров подразделений по изучению психологических особенностей пополнения [2007, DOC, RUS] Omen
1 | 0

0 | 685

3

2015-08-20 18:34
Omen Latest
Display posts from previous:    
Reply to topic

The time now is: Today 18:42

All times are GMT + 3 Hours



You cannot post new topics in this forum
You cannot reply to topics in this forum
You cannot edit your posts in this forum
You cannot delete your posts in this forum
You cannot vote in polls in this forum
You cannot attach files in this forum
You cannot download files in this forum