Today is a free download without charge Download

В тридесятом веке (Владимир Самсонов) [1972, мультфильм, DVB]

Reply to topic
 
Author
Message

Omen ®

Longevity: 7 years 11 months

Posts: 181087

Торрент-статистика

Post 18-Aug-2014 14:04

[Quote]

В тридесятом веке
Жанр: мультфильм
Год выпуска: 1972
Продолжительность: 00:14:07
Режиссёр: Владимир Самсонов
Описание: мультфильм о мальчике, улетевшем на другую планету помогать обитателям, попавшим в беду...
Доп. информация: огромная благодарность за предоставленный исходник

Трансляция спутникового канала:

Качество видео: DVB
Формат видео: MPEG-PS
Видео: MPEG2 Video, [email protected] (4:3), анаморф, 25 fps, 4100 kbps
Аудио: MPEG Audio, 2 сh, 48 kHz, 192 Kbps

MediaInfo

General
Complete name : D:\В тридесятом веке. (1972)_DVB by RG multfilms.mpg
Format : MPEG-PS
File size : 443 MiB
Duration : 14mn 7s
Overall bit rate mode : Variable
Overall bit rate : 4 383 Kbps
Video
ID : 224 (0xE0)
Format : MPEG Video
Format version : Version 2
Format profile : [email protected]
Format settings, BVOP : No
Format settings, Matrix : Custom
Format settings, GOP : M=3, N=12
Duration : 14mn 7s
Bit rate mode : Variable
Bit rate : 4 104 Kbps
Maximum bit rate : 10 000 Kbps
Width : 720 pixels
Height : 576 pixels
Display aspect ratio : 4:3
Frame rate : 25.000 fps
Standard : PAL
Color space : YUV
Chroma subsampling : 4:2:0
Bit depth : 8 bits
Scan type : Interlaced
Scan order : Top Field First
Compression mode : Lossy
Bits/(Pixel*Frame) : 0.396
Time code of first frame : 00:00:00:00
Time code source : Group of pictures header
Stream size : 415 MiB (94%)
Audio
ID : 192 (0xC0)
Format : MPEG Audio
Format version : Version 1
Format profile : Layer 2
Duration : 14mn 7s
Bit rate mode : Constant
Bit rate : 192 Kbps
Channel(s) : 2 channels
Sampling rate : 48.0 KHz
Compression mode : Lossy
Stream size : 19.4 MiB (4%)

Скриншоты


Other forum [Profile] [PM]
Display posts from previous:    
Reply to topic

The time now is: Today 15:49

All times are GMT + 3 Hours



You cannot post new topics in this forum
You cannot reply to topics in this forum
You cannot edit your posts in this forum
You cannot delete your posts in this forum
You cannot vote in polls in this forum
You cannot attach files in this forum
You cannot download files in this forum