Today is a free download without charge Download

Discovery. Выживание без купюр / Marooned with Ed Staffordl (Эд Стаффорд)[2014.,Документальный, приключения, экстрим, природа] SATRip (серии 1-5 из 5)

Reply to topic
 
Author
Message

sashau ®

Gender:

Longevity: 8 years 9 months

Posts: 3497

Торрент-статистика

Post 18-Aug-2014 13:49

[Quote]

Discovery. Выживание без купюр / Marooned with Ed Staffordl - Страна: Великобритания
Телекомпания: Tigress productions, Waterdog productions, Discovery Networks Europe
Год выпуска: 2014
Жанр: Документальный, приключения, экстрим, природа
Описание:
Документально-приключенческий английский сериал «Выживание без купюр» - это несколько ярких серий о невероятно экстремальных попытках англичанина Эда Стаффорда выжить в дикой природе. При этом у него не будет с собой ни питья, ни еды, ни одежды, ни специальных орудий для какой-либо деятельности, ни каких-либо благ цивилизации. Продержится ли он 10 дней?
Режиссер: Эд Стаффорд
Участники: Эд Стаффорд
Продолжительность: 00:43:53
Качество видео: SATRip
Перевод: Одноголосый закадровый, профессиональный
Субтитры: Отсутствуют
Видеокодек: XviD
Битрейт видео: ~ 1519 Кбит/сек
Размер кадра: 720x400 (16:9)
Аудиокодек: MP3, 2ch.
Битрейт аудио: 128 Кбит/сек

Список серий

1. Венесуэла
2. Ботсвана
3. Румыния
4. Австралия
5. Борнео

MediaInfo (параметры всех серий одинаковы)

[code]Общее
Полное имя : 1. Венесуэла.avi
Формат : AVI
Формат/Информация : Audio Video Interleave
Размер файла : 519 Мбайт
Продолжительность : 43 м.
Режим общего битрейта : Переменный
Общий поток : 1649 Кбит/сек
Программа кодирования : VirtualDubMod 1.5.10.3 | www.virtualdub-fr.org || (build 2550/release)
Библиотека кодирования : VirtualDubMod build 2550/release
Видео
Идентификатор : 0
Формат : MPEG-4 Visual
Профиль формата : Advanced [email protected]
Параметр BVOP формата : 1
Параметр QPel формата : Нет
Параметр GMC формата : Без точки перехода
Параметр матрицы формата : Default (H.263)
Идентификатор кодека : XVID
Идентификатор кодека/Подсказка : XviD
Продолжительность : 43 м.
Битрейт : 1519 Кбит/сек
Ширина : 720 пикселей
Высота : 400 пикселей
Соотношение сторон : 16:9
Частота кадров : 25,000 кадров/сек
Цветовое пространство : YUV
Субдискретизация насыщенности : 4:2:0
Битовая глубина : 8 бит
Тип развёртки : Прогрессивная
Метод сжатия : С потерями
Бит/(Пиксели*Кадры) : 0.211
Размер потока : 478 Мбайт (92%)
Библиотека кодирования : XviD 1.2.1 (UTC 2008-12-04)
Аудио
Идентификатор : 1
Формат : MPEG Audio
Версия формата : Version 1
Профиль формата : Layer 3
Режим : Joint stereo
Расширение режима : MS Stereo
Идентификатор кодека : 55
Идентификатор кодека/Подсказка : MP3
Продолжительность : 43 м.
Вид битрейта : Переменный
Битрейт : 118 Кбит/сек
Номинальный битрейт : 128 Кбит/сек
Каналы : 2 канала
Частота : 44,1 КГц
Метод сжатия : С потерями
Размер потока : 37,1 Мбайт (7%)
Выравнивание : Соединение по промежуткам
Продолжительность промежутка : 26 мс. (0,65 видеокадр)
Время предзагрузки промежутка : 505 мс.
Библиотека кодирования : LAME3.99
Настройки программы : -m j -V 4 -q 2 -lowpass 17 --abr 128
[code]
Скриншоты:          
         
Other forum [Profile] [PM]
Display posts from previous:    
Reply to topic

The time now is: Today 09:23

All times are GMT + 3 Hours



You cannot post new topics in this forum
You cannot reply to topics in this forum
You cannot edit your posts in this forum
You cannot delete your posts in this forum
You cannot vote in polls in this forum
You cannot attach files in this forum
You cannot download files in this forum