Today is a free download without charge Download

Дора-Дора-помидора (Инесса Ковалевская) [2001 г., мультфильм, DVB]

Reply to topic
 
Author
Message

Omen ®

Longevity: 7 years 11 months

Posts: 181087

Торрент-статистика

Post 17-Aug-2014 20:08

[Quote]

Дора-Дора-помидора
Жанр: мультфильм
Год выпуска: 2001
Продолжительность: 00:09:51
Режиссёр: Инесса Ковалевская
Описание: мультфильм для самых маленьких. Обитатели деревенского двора - котенок, пес и кролик в поисках "злодея", укравшего у них косточку , молоко и морковку, не заметили, как из детской считалки у них неожиданно сложилась "грозная" песенка.

Трансляция спутникового канала:
Качество видео: DVB
Формат видео: MPEG-PS
Видео: MPEG2 Video, [email protected] (4:3), анаморф, 25 fps, 1900 kbps
Аудио: MPEG Audio, 2 сh, 48 kHz, 192 Kbps

MediaInfo

General
Complete name : D:\Дора-Дора-помидора. (1972)_DVB by RG multfilms .mpg
Format : MPEG-PS
File size : 151 MiB
Duration : 9mn 51s
Overall bit rate mode : Variable
Overall bit rate : 2 143 Kbps
Video
ID : 224 (0xE0)
Format : MPEG Video
Format version : Version 2
Format profile : [email protected]
Format settings, BVOP : No
Format settings, Matrix : Custom
Format settings, GOP : M=3, N=24
Duration : 9mn 51s
Bit rate mode : Variable
Bit rate : 1 908 Kbps
Maximum bit rate : 15.0 Mbps
Width : 704 pixels
Height : 576 pixels
Display aspect ratio : 4:3
Frame rate : 25.000 fps
Standard : PAL
Color space : YUV
Chroma subsampling : 4:2:0
Bit depth : 8 bits
Scan type : Interlaced
Scan order : Top Field First
Compression mode : Lossy
Bits/(Pixel*Frame) : 0.188
Time code of first frame : 00:00:00:00
Time code source : Group of pictures header
Stream size : 135 MiB (89%)
Audio
ID : 192 (0xC0)
Format : MPEG Audio
Format version : Version 1
Format profile : Layer 2
Duration : 9mn 51s
Bit rate mode : Constant
Bit rate : 192 Kbps
Channel(s) : 2 channels
Sampling rate : 48.0 KHz
Compression mode : Lossy
Stream size : 13.5 MiB (9%)

Скриншоты


Other forum [Profile] [PM]
Display posts from previous:    
Reply to topic

The time now is: Today 08:12

All times are GMT + 3 Hours



You cannot post new topics in this forum
You cannot reply to topics in this forum
You cannot edit your posts in this forum
You cannot delete your posts in this forum
You cannot vote in polls in this forum
You cannot attach files in this forum
You cannot download files in this forum