Today is a free download without charge Download

Белка и Стрелка звёздные собаки (Святослав Ушаков, Инна Евланникова) [2010, мульфильм, DVDrip]

Reply to topic
 
Author
Message

Omen ®

Longevity: 7 years 11 months

Posts: 181087

Торрент-статистика

Post 16-Aug-2014 23:00

[Quote]

Белка и Стрелка звёздные собаки
Страна: Россия
Жанр: мульфильм
Продолжительность: 01:28:09
Год выпуска: 2010
Перевод: Не требуется
Русские субтитры: нет
Режиссёр: Святослав Ушаков, Инна Евланникова
Роли озвучивали: Анна Большова, Елена Яковлева. Евгений Миронов, Сергей Гармаш, Александр Баширов, Руслан Кулешов. Сергей Юшкевич, Николай Сморчков, Всеволод Кузнецов, Жанна Никонова
Описание: В космос? На ракете? Белка и Стрелка вряд ли об этом мечтали. Космос сам ворвался в их жизнь. Собаки вместе с крысом Веней и другими мохнатыми претендентами в космонавты случайно оказались в эпицентре исторических событий.
Качество: DVDrip
Формат: avi
Видео: XVID; 2104 Кбит/сек; 720х400 (16:9); 25,000 кадров/сек
Аудио: AC-3; 384 Кбит/сек; 6 каналов; 48,0 КГц
Субтитры: Отсутствуют
Семпл: https://www.sendspace.com/file/jqaha1

Скриншоты

mi

Общее
Полное имя : E:\закачки\Звёздные собаки (rip) [/*spam*/].avi
Формат : AVI
Формат/Информация : Audio Video Interleave
Размер файла : 1,48 Гбайт
Продолжительность : 1 ч. 24 м.
Общий поток : 2498 Кбит/сек
Программа кодирования : VirtualDubMod 1.5.10.2 (build 2540/release)
Библиотека кодирования : VirtualDubMod build 2540/release
Видео
Идентификатор : 0
Формат : MPEG-4 Visual
Профиль формата : Advanced [email protected]
Параметр BVOP формата : 2
Параметр QPel формата : Нет
Параметр GMC формата : Без точки перехода
Параметр матрицы формата : Default (H.263)
Идентификатор кодека : XVID
Идентификатор кодека/Подсказка : XviD
Продолжительность : 1 ч. 24 м.
Битрейт : 2104 Кбит/сек
Ширина : 720 пикселей
Высота : 400 пикселей
Соотношение сторон : 16:9
Частота кадров : 25,000 кадров/сек
Цветовое пространство : YUV
Субдискретизация насыщенности : 4:2:0
Битовая глубина : 8 бит
Тип развёртки : Прогрессивная
Метод сжатия : С потерями
Бит/(Пиксели*Кадры) : 0.292
Размер потока : 1,25 Гбайт (84%)
Библиотека кодирования : XviD 1.2.1 (UTC 2008-12-04)
Аудио
Идентификатор : 1
Формат : AC-3
Формат/Информация : Audio Coding 3
Расширение режима : CM (complete main)
Параметр Endianness формата : Big
Идентификатор кодека : 2000
Продолжительность : 1 ч. 24 м.
Вид битрейта : Постоянный
Битрейт : 384 Кбит/сек
Каналы : 6 каналов
Расположение каналов : Front: L C R, Side: L R, LFE
Частота : 48,0 КГц
Битовая глубина : 16 бит
Метод сжатия : С потерями
Размер потока : 233 Мбайт (15%)
Выравнивание : Соединение по промежуткам
Продолжительность промежутка : 40 мс. (1,00 видеокадр)
Время предзагрузки промежутка : 512 мс.
Other forum [Profile] [PM]
Display posts from previous:    
Reply to topic

The time now is: Today 03:48

All times are GMT + 3 Hours



You cannot post new topics in this forum
You cannot reply to topics in this forum
You cannot edit your posts in this forum
You cannot delete your posts in this forum
You cannot vote in polls in this forum
You cannot attach files in this forum
You cannot download files in this forum