Today is a free download without charge Download

Орел и крот (Пантелеймон Сазонов, Ламис Бредис) [1944, Мультфильм,короткометражка, TVRip]

Reply to topic
 
Author
Message

Omen ®

Longevity: 7 years 11 months

Posts: 181087

Торрент-статистика

Post 13-Aug-2014 02:00

[Quote]

Орел и крот
Страна: СССР
Жанр: Мультфильм,короткометражка
Продолжительность: 00:06:10
Год выпуска: 1944
Русские субтитры: нет
Режиссёр: Пантелеймон Сазонов, Ламис Бредис
Описание: По басне И.А. Крылова,о том как гордый Орел непослушал совета Крота
Доп. информация: сценаристы Ламис Бредис, Пантелеймон Сазонов
аниматоры Борис Дежкин, Геннадий Филиппов, Фаина Епифанова, Ламис Бредис
оператор Н. Соколова, А. Алипова
композитор Никита Богословский
звукооператор С. Ренский
Мультфильм чёрно-белый
Качество: TVRip
Формат: AVI
Видео: 640x480 (1.33:1), 25 fps, XviD build 64 ~2163 kbps avg, 0.28 bit/pixel
Аудио: 48 kHz, MPEG Layer 3, 2 ch, ~128.00 kbps avg
Субтитры: "отсутствуют

MediaInfo

General
Complete name : D:\Фильмы\Орел и Крот (1944)......avi
Format : AVI
Format/Info : Audio Video Interleave
File size : 102 MiB
Duration : 6mn 10s
Overall bit rate : 2 301 Kbps
Writing library : VirtualDub build 35390/release
Video
ID : 0
Format : MPEG-4 Visual
Format profile : Advanced [email protected]
Format settings, BVOP : No
Format settings, QPel : No
Format settings, GMC : No warppoints
Format settings, Matrix : Custom
Codec ID : XVID
Codec ID/Hint : XviD
Duration : 6mn 10s
Bit rate : 2 163 Kbps
Width : 640 pixels
Height : 480 pixels
Display aspect ratio : 4:3
Frame rate : 25.000 fps
Color space : YUV
Chroma subsampling : 4:2:0
Bit depth : 8 bits
Scan type : Progressive
Bits/(Pixel*Frame) : 0.282
Stream size : 95.4 MiB (94%)
Writing library : XviD 64
Audio
ID : 1
Format : MPEG Audio
Format version : Version 1
Format profile : Layer 3
Codec ID : 55
Codec ID/Hint : MP3
Duration : 6mn 10s
Bit rate mode : Constant
Bit rate : 128 Kbps
Channel(s) : 2 channels
Sampling rate : 48.0 KHz
Stream size : 5.65 MiB (6%)
Alignment : Split accross interleaves
Interleave, duration : 40 ms (1.00 video frame)
Interleave, preload duration : 500 ms
Writing library : LAME3.98r
Encoding settings : -m s -V 4 -q 2 -lowpass 17 -b 128[/pre]

Скриншоты

Торент файл перезалит 12.08. 2014, заменил на лучшее качество видео
Other forum [Profile] [PM]
Display posts from previous:    
Reply to topic

The time now is: Today 01:17

All times are GMT + 3 Hours



You cannot post new topics in this forum
You cannot reply to topics in this forum
You cannot edit your posts in this forum
You cannot delete your posts in this forum
You cannot vote in polls in this forum
You cannot attach files in this forum
You cannot download files in this forum