Today is a free download without charge Download

(OST) Люпен III: Женщина по имени Фудзико Минэ / Lupin the Third: Mine Fujiko to Iu Onna (LUPIN the Third Mine Fujiko to Iu Onna original soundtrack Music by Naruyoshi Kikuchi) - 2012 г., FLAC (image+.cue), lossless

Reply to topic
 
Author
Message

Omen ®

Longevity: 9 years

Posts: 181086

Торрент-статистика

Post 04-Aug-2014 11:00

[Quote]

Lupin the Third:
Mine Fujiko to Iu Onna

Название альбома: LUPIN the Third Mine Fujiko to Iu Onna original soundtrack Music by Naruyoshi Kikuchi
Композитор: Kikuchi Naruyoshi
Год выпуска: 2012 г.
Страна: Япония
Аудио кодек: FLAC (*.flac)
Тип рипа: image+.cue
Битрейт аудио: lossless
Продолжительность: 1:04:36
Наличие сканов в содержимом раздачи: да
На этот раз саундтреком к Люпену Третьему занялся сам Kikuchi Naruyoshi - один из самых амбициозных джаз-импровизаторов Японии. Удивительное событие!
_________________________________________________
Треклист:
01 Seikon
02 Shin Arashi ga Oka
03 Mine Fujiko to Iu Onna-1
04 Zetsubou to Kyouraku
05 Yuuwaku
06 Senkou
07 Lupin Sansei to Iu Otoko-1
08 Ishikawa Goemon to Iu Otoko-1
09 Zantetsu no Ken-1
10 Boukyaku
11 Fraulein Eule 1-Gishiki
12 Shourei I-Sakuran
13 Jigen Daisuke to Iu Otoko-1
14 Indigo Blue 1
15 Kageki “Tosca” Dai-ichi Maku yori “Kanashimi ni Kurete Shirase ni Kita noni”
16 Kairaku Genri
17 Fraulein Eule 2-Soushitsu
18 Jigen Daisuke to Iu Otoko-2
19 Mine Fujiko to Iu Onna-2
20 Shourei II-Kairi
21 Joukuu 20000 Feet no Latin
22 Dorobou no Teiri
23 Misemono Koya no Onna
24 Bishounen Oscar (Nisei no Invention Dai-13-ban I-tanchou BWV 784)
25 Fraulein Eule 3-Jubaku
26 Lupin Sansei to Iu Otoko-2
27 Elegy 1
28 Kageki “Tosca” Dai-ni Maku yori Aria “Uta ni Iki, Koi ni Iki”
29 Shourei III-Kyoukai
30 Hypnotic Beat
31 Ishikawa Goemon to Iu Otoko-2
32 Zantetsu no Ken-2
33 Lupin Sansei to Iu Otoko-3
34 Kyogi Kioku
35 Obsession
36 Fukurou-Otoko
37 Glaucus Park
38 Fujiko no Yakata
39 Stigma
40 Gen’ei
41 Indigo Blue 2
42 Elegy 2
43 Duty Friend (tv size)

Лог создания рипа

Exact Audio Copy V1.0 beta 3 from 29. August 2011
EAC extraction logfile from 5. January 2013, 17:57
菊地成孔 / LUPIN the Third 峰不二子という女 サウンドトラック
Used drive : SlimtypeDVD A DS8A5SH Adapter: 0 ID: 0
www.astost.comF.F.M encoded by Act_yegoRead mode : SecureUtilize accurate stream : YesDefeat audio cache : YesMake use of C2 pointers : No
Read offset correction : 6Overread into Lead-In and Lead-Out : NoFill up missing offset samples with silence : YesDelete leading and trailing silent blocks : NoNull samples used in CRC calculations : YesUsed interface : Native Win32 interface for Win NT & 2000
Used output format : Internal WAV RoutinesSample format : 44.100 Hz; 16 Bit; Stereo
TOC of the extracted CD
Track | Start | Length | Start sector | End sector --------------------------------------------------------- 1 | 0:00.00 | 1:16.25 | 0 | 5724 2 | 1:16.25 | 1:29.53 | 5725 | 12452 3 | 2:46.03 | 1:03.14 | 12453 | 17191 4 | 3:49.17 | 1:56.61 | 17192 | 25952 5 | 5:46.03 | 1:18.15 | 25953 | 31817 6 | 7:04.18 | 1:14.02 | 31818 | 37369 7 | 8:18.20 | 2:37.02 | 37370 | 49146 8 | 10:55.22 | 0:10.43 | 49147 | 49939 9 | 11:05.65 | 0:35.69 | 49940 | 52633 10 | 11:41.59 | 0:44.35 | 52634 | 55968 11 | 12:26.19 | 4:16.70 | 55969 | 75238 12 | 16:43.14 | 0:59.43 | 75239 | 79706 13 | 17:42.57 | 0:20.27 | 79707 | 81233 14 | 18:03.09 | 1:01.07 | 81234 | 85815 15 | 19:04.16 | 2:35.64 | 85816 | 97504 16 | 21:40.05 | 1:00.07 | 97505 | 102011 17 | 22:40.12 | 0:54.33 | 102012 | 106094 18 | 23:34.45 | 0:13.51 | 106095 | 107120 19 | 23:48.21 | 0:32.72 | 107121 | 109592 20 | 24:21.18 | 1:31.12 | 109593 | 116429 21 | 25:52.30 | 5:38.06 | 116430 | 141785 22 | 31:30.36 | 1:52.04 | 141786 | 150189 23 | 33:22.40 | 2:22.48 | 150190 | 160887 24 | 35:45.13 | 1:02.07 | 160888 | 165544 25 | 36:47.20 | 0:33.73 | 165545 | 168092 26 | 37:21.18 | 1:32.63 | 168093 | 175055 27 | 38:54.06 | 1:15.21 | 175056 | 180701 28 | 40:09.27 | 3:07.40 | 180702 | 194766 29 | 43:16.67 | 3:04.35 | 194767 | 208601 30 | 46:21.27 | 1:05.06 | 208602 | 213482 31 | 47:26.33 | 0:10.23 | 213483 | 214255 32 | 47:36.56 | 0:34.27 | 214256 | 216832 33 | 48:11.08 | 2:03.15 | 216833 | 226072 34 | 50:14.23 | 1:11.71 | 226073 | 231468 35 | 51:26.19 | 0:42.23 | 231469 | 234641 36 | 52:08.42 | 0:55.29 | 234642 | 238795 37 | 53:03.71 | 1:19.72 | 238796 | 244792 38 | 54:23.68 | 2:06.20 | 244793 | 254262 39 | 56:30.13 | 1:23.65 | 254263 | 260552 40 | 57:54.03 | 1:14.12 | 260553 | 266114 41 | 59:08.15 | 1:20.08 | 266115 | 272122 42 | 60:28.23 | 2:45.16 | 272123 | 284513 43 | 63:13.39 | 1:22.12 | 284514 | 290675
Range status and errors
Selected range
Filename C:\Users\Act_yego\Desktop\Encoded\LUPIN the Third 峰不二子という女 サウンドトラック\LUPIN the Third 峰不二子という女 サウンドトラック.wav
Peak level 99.4 % Extraction speed 5.0 X Range quality 100.0 % Copy CRC 5016EFC9 Copy OK
No errors occurred
AccurateRip summary
Track 1 not present in databaseTrack 2 not present in databaseTrack 3 not present in databaseTrack 4 not present in databaseTrack 5 not present in databaseTrack 6 not present in databaseTrack 7 not present in databaseTrack 8 not present in databaseTrack 9 not present in databaseTrack 10 not present in databaseTrack 11 not present in databaseTrack 12 not present in databaseTrack 13 not present in databaseTrack 14 not present in databaseTrack 15 not present in databaseTrack 16 not present in databaseTrack 17 not present in databaseTrack 18 not present in databaseTrack 19 not present in databaseTrack 20 not present in databaseTrack 21 not present in databaseTrack 22 not present in databaseTrack 23 not present in databaseTrack 24 not present in databaseTrack 25 not present in databaseTrack 26 not present in databaseTrack 27 not present in databaseTrack 28 not present in databaseTrack 29 not present in databaseTrack 30 not present in databaseTrack 31 not present in databaseTrack 32 not present in databaseTrack 33 not present in databaseTrack 34 not present in databaseTrack 35 not present in databaseTrack 36 not present in databaseTrack 37 not present in databaseTrack 38 not present in databaseTrack 39 not present in databaseTrack 40 not present in databaseTrack 41 not present in databaseTrack 42 not present in databaseTrack 43 not present in database
None of the tracks are present in the AccurateRip database
End of status report
---- CUETools DB Plugin V2.1.3
[CTDB TOCID: 5PRofJkE3xrskzvedaVVYxtcTxE-] disk not present in database, Submit result: 5PRofJkE3xrskzvedaVVYxtcTxE- has been uploaded
==== Log checksum B9A8FF44726BF08FB951BD665F3B3B14198F5E5B15057677F6D45ED37E44FB86 ====

Индексная карта .cue

REM GENRE AnimeREM DATE 2012-12-19REM DISCID 580F232BREM COMMENT "F.F.M encoded by Act_yego"CATALOG 4988001740421PERFORMER "菊地成孔"TITLE "LUPIN the Third 峰不二子という女 サウンドトラック"FILE "LUPIN the Third 峰不二子という女 サウンドトラック.flac" WAVE TRACK 01 AUDIO TITLE "聖痕" PERFORMER "菊地成孔" ISRC JPCO01252780 INDEX 01 00:00:00 TRACK 02 AUDIO TITLE "新・嵐が丘 (オープニング・テーマ)" PERFORMER "橋本一子" ISRC JPCO01252790 INDEX 01 01:16:25 TRACK 03 AUDIO TITLE "峰不二子という女 - 1" PERFORMER "菊地成孔" ISRC JPCO01252800 INDEX 01 02:46:03 TRACK 04 AUDIO TITLE "絶望と享楽" PERFORMER "菊地成孔" ISRC JPCO01252810 INDEX 01 03:49:17 TRACK 05 AUDIO TITLE "誘惑" PERFORMER "菊地成孔" ISRC JPCO01252820 INDEX 01 05:46:03 TRACK 06 AUDIO TITLE "潜行" PERFORMER "菊地成孔" ISRC JPCO01252830 INDEX 01 07:04:18 TRACK 07 AUDIO TITLE "ルパン三世という男 - 1" PERFORMER "菊地成孔" ISRC JPCO01252830 INDEX 01 08:18:20 TRACK 08 AUDIO TITLE "石川五ェ門という男 - 1" PERFORMER "菊地成孔" ISRC JPCO01252850 INDEX 01 10:55:22 TRACK 09 AUDIO TITLE "斬鉄の剣 - 1" PERFORMER "菊地成孔" ISRC JPCO01252860 INDEX 01 11:05:65 TRACK 10 AUDIO TITLE "忘却" PERFORMER "菊地成孔" ISRC JPCO01252870 INDEX 01 11:41:59 TRACK 11 AUDIO TITLE "フロイライン・オイレ1 - 儀式" PERFORMER "菊地成孔" ISRC JPCO01252880 INDEX 01 12:26:19 TRACK 12 AUDIO TITLE "症例I - 錯乱" PERFORMER "菊地成孔" ISRC JPCO01252880 INDEX 01 16:43:14 TRACK 13 AUDIO TITLE "次元大介という男 - 1" PERFORMER "菊地成孔" ISRC JPCO01252900 INDEX 01 17:42:57 TRACK 14 AUDIO TITLE "インディゴ・ブルー1" PERFORMER "菊地成孔" ISRC JPCO01252910 INDEX 01 18:03:09 TRACK 15 AUDIO TITLE "歌劇「トスカ」第一幕より「悲しみに暮れて知らせに来たのに」" PERFORMER "菊地成孔" ISRC JPCO01252920 INDEX 01 19:04:16 TRACK 16 AUDIO TITLE "快楽原理" PERFORMER "菊地成孔" ISRC JPCO01252930 INDEX 01 21:40:05 TRACK 17 AUDIO TITLE "フロイライン・オイレ2 - 喪失" PERFORMER "菊地成孔" ISRC JPCO01252940 INDEX 01 22:40:12 TRACK 18 AUDIO TITLE "次元大介という男 - 2" PERFORMER "菊地成孔" ISRC JPCO01252950 INDEX 01 23:34:45 TRACK 19 AUDIO TITLE "峰不二子という女 - 2" PERFORMER "菊地成孔" ISRC JPCO01252960 INDEX 01 23:48:21 TRACK 20 AUDIO TITLE "症例II - 解離" PERFORMER "菊地成孔" ISRC JPCO01252970 INDEX 01 24:21:18 TRACK 21 AUDIO TITLE "上空20000フィートのラテン" PERFORMER "菊地成孔" ISRC JPCO01252980 INDEX 01 25:52:30 TRACK 22 AUDIO TITLE "泥棒の定理" PERFORMER "菊地成孔" ISRC JPCO01252990 INDEX 00 31:29:45 INDEX 01 31:30:36 TRACK 23 AUDIO TITLE "見世物小屋の女" PERFORMER "菊地成孔" ISRC JPCO01253000 INDEX 01 33:22:40 TRACK 24 AUDIO TITLE "美少年オスカー(J.S.バッハ: 2声のインベンション第13番 イ短調 BWV 784)" PERFORMER "菊地成孔" ISRC JPCO01253010 INDEX 01 35:45:13 TRACK 25 AUDIO TITLE "フロイライン・オイレ3 - 呪縛" PERFORMER "菊地成孔" ISRC JPCO01253020 INDEX 00 36:47:00 INDEX 01 36:47:20 TRACK 26 AUDIO TITLE "ルパン三世という男 - 2" PERFORMER "菊地成孔" ISRC JPCO01253030 INDEX 01 37:21:18 TRACK 27 AUDIO TITLE "エレジー1" PERFORMER "菊地成孔" ISRC JPCO01253040 INDEX 01 38:54:06 TRACK 28 AUDIO TITLE "歌劇「トスカ」第二幕より「歌に生き、恋に生き」" PERFORMER "菊地成孔" ISRC JPCO01253040 INDEX 01 40:09:27 TRACK 29 AUDIO TITLE "症例III - 境界" PERFORMER "菊地成孔" ISRC JPCO01253060 INDEX 00 43:16:59 INDEX 01 43:16:67 TRACK 30 AUDIO TITLE "ヒプノティック・ビート" PERFORMER "菊地成孔" ISRC JPCO01253070 INDEX 01 46:21:27 TRACK 31 AUDIO TITLE "石川五ェ門という男 - 2" PERFORMER "菊地成孔" ISRC JPCO01253070 INDEX 01 47:26:33 TRACK 32 AUDIO TITLE "斬鉄の剣 - 2" PERFORMER "菊地成孔" ISRC JPCO01253090 INDEX 01 47:36:56 TRACK 33 AUDIO TITLE "ルパン三世という男 - 3" PERFORMER "菊地成孔" ISRC JPCO01253100 INDEX 01 48:11:08 TRACK 34 AUDIO TITLE "虚偽記憶" PERFORMER "菊地成孔" ISRC JPCO01253110 INDEX 01 50:14:23 TRACK 35 AUDIO TITLE "オブセッション" PERFORMER "菊地成孔" ISRC JPCO01253120 INDEX 00 51:25:02 INDEX 01 51:26:19 TRACK 36 AUDIO TITLE "梟男" PERFORMER "菊地成孔" ISRC JPCO01253130 INDEX 01 52:08:42 TRACK 37 AUDIO TITLE "グラウコス・パーク" PERFORMER "菊地成孔" ISRC JPCO01253140 INDEX 00 53:03:63 INDEX 01 53:03:71 TRACK 38 AUDIO TITLE "不二子の館" PERFORMER "菊地成孔" ISRC JPCO01253140 INDEX 01 54:23:68 TRACK 39 AUDIO TITLE "スティグマ" PERFORMER "菊地成孔" ISRC JPCO01253160 INDEX 00 56:29:65 INDEX 01 56:30:13 TRACK 40 AUDIO TITLE "幻影" PERFORMER "菊地成孔" ISRC JPCO01253160 INDEX 01 57:54:03 TRACK 41 AUDIO TITLE "インディゴ・ブルー2" PERFORMER "菊地成孔" ISRC JPCO01253180 INDEX 01 59:08:15 TRACK 42 AUDIO TITLE "エレジー2" PERFORMER "菊地成孔" ISRC JPCO01253190 INDEX 01 60:28:23 TRACK 43 AUDIO TITLE "Duty Friend (エンディング・テーマ tv size)" PERFORMER "NIKIIE" ISRC JPCO01208590 INDEX 00 63:12:40 INDEX 01 63:13:39
Other forum [Profile] [PM]
Display posts from previous:    
Reply to topic

The time now is: Today 06:42

All times are GMT + 3 Hours



You cannot post new topics in this forum
You cannot reply to topics in this forum
You cannot edit your posts in this forum
You cannot delete your posts in this forum
You cannot vote in polls in this forum
You cannot attach files in this forum
You cannot download files in this forum