Today is a free download without charge Download

Недотрога (Алексей Праздников) [2014, Россия, мелодрама, HDTV 1080i]

Reply to topic
 
Author
Message

Omen ®

Longevity: 8 years 10 months

Posts: 181086

Торрент-статистика

Post 03-Aug-2014 02:00

[Quote]

Недотрога
Страна: Россия
Жанр: мелодрама
Год выпуска: 2014
Продолжительность: 03:03:30
Перевод: Не требуется
Cубтитры: нет
Режиссер: Алексей Праздников
В ролях: Дарья Баранова, Марта Голубева, Андрей Градов, Алексей Анищенко, Валентина Гарцуева, Алексей Яровенко, Илья Сотиков
Описание:
Говорят, что студенческая дружба самая крепкая и чистая. В эту истину верила и юная Аня, когда доверяла все свои секреты коварной и завистливой Светке. Но так вышло, что Аня понравилась Мише, которого Светка «присмотрела» для себя. Став невольной разлучницей (Аня поначалу на Мишу и смотреть не хотела), девушка навлекла на себя самую черную зависть подруги.
Доп. информация: Запись с телеканала "Россия HD" (НТВ+, записано при помощи skystar2)

Сэмпл: http://sendfile.su/1007901
Тип релиза: HDTV 1080i
Контейнер: TS
Видео: AVC/H.264, PAL, 1920x1080 (16:9), 7729 Кбит/сек, 25.000 fps
Аудио: русский, MP-2, 48000 Hz, 192 Кбит/сек, 2 ch

MediaInfo

Видео
Идентификатор : 306 (0x132)
Идентификатор меню : 1 (0x1)
Формат : AVC
Формат/Информация : Advanced Video Codec
Профиль формата : [email protected]
Параметр CABAC формата : Да
Параметр ReFrames формата : 4 кадра
Идентификатор кодека : 27
Продолжительность : 3 ч. 3 м.
Битрейт : 7729 Кбит/сек
Ширина : 1920 пикселей
Высота : 1080 пикселей
Соотношение сторон : 16:9
Частота кадров : 25,000 кадров/сек
Стандарт вещания : Component
Цветовое пространство : YUV
Субдискретизация насыщенности : 4:2:0
Битовая глубина : 8 бит
Тип развёртки : Чересстрочная
Порядок развёртки : Верхнее поле первое
Бит/(Пиксели*Кадры) : 0.149
Размер потока : 9,91 Гбайт (93%)
Основные цвета : BT.709
Характеристики трансфера : BT.709
Коэффициенты матрицы : BT.709
Аудио
Идентификатор : 406 (0x196)
Идентификатор меню : 1 (0x1)
Формат : MPEG Audio
Версия формата : Version 1
Профиль формата : Layer 2
Идентификатор кодека : 3
Продолжительность : 3 ч. 3 м.
Вид битрейта : Постоянный
Битрейт : 192 Кбит/сек
Каналы : 2 канала
Частота : 48,0 КГц
Метод сжатия : С потерями
Размер потока : 252 Мбайт (2%)
Язык : English

Скриншот c названием фильма

Скриншоты

Other forum [Profile] [PM]
Display posts from previous:    
Reply to topic

The time now is: Today 18:19

All times are GMT + 3 Hours



You cannot post new topics in this forum
You cannot reply to topics in this forum
You cannot edit your posts in this forum
You cannot delete your posts in this forum
You cannot vote in polls in this forum
You cannot attach files in this forum
You cannot download files in this forum