Today is a free download without charge Download

Любовь зла / Shallow Hal (Бобби Фаррелли / Bobby Farrelly) [2001, США, Германия, фэнтези, драма, мелодрама, комедия, BDRip 720p]

Reply to topic
 
Author
Message

Delia ®

Gender:

Longevity: 10 years

Posts: 1821

Торрент-статистика

Post 08-Jan-2012 11:28

[Quote]

Любовь злаShallow Hal Страна: США, Германия
Студия: Conundrum Entertainment
Жанр: фэнтези, драма, мелодрама, комедия
Год выпуска: 2001
Продолжительность: 01:53:43
Перевод: Профессиональный (дублированный)
Cубтитры: английские, русские
Оригинальная аудиодорожка: английский
Режиссер: Бобби Фаррелли / Bobby Farrelly
В ролях: Гвинет Пэлтроу, Джек Блэк, Джейсон Александр, Джо Витерелли, Рене Кирби, Брюс МакГилл, Энтони Роббинс, Сьюзэн Уорд, Зен Геснер
Описание: Хэла Ларсена начать длительные отношения с девушкой очень сложно, причем, виновата в этом даже не его не самая презентабельная внешность, а собственные чересчур завышенные запросы. Но жизнь Хэла меняется после неожиданной встречи в лифте — его случайный попутчик «открывает ему глаза», наделяя способностью видеть не внешнюю оболочку людей, а их внутреннюю красоту.
Не подозревая о произошедшей с ним перемене, Хэл знакомится с Розмари, которая кажется ему настоящей красавицей, к тому же она умна, забавна и очень добра. Вот только окружающие вместо худенькой и стройной девушки видят необъятных размеров «слониху», под которой то и дело ломаются стулья…

Тип релиза: BDRip 720p
Контейнер: MKV
Видео: МPEG-4 AVC, 1280х694 (16:9) , 23,976fps, ~ 5750 kbps avg , [email protected]
Аудио: Russian: 48 kHz, DTS, 3/2 (L,C,R,l,r) + LFE ch, ~755 kbps avg
Аудио 2: English: 48 kHz, DTS, 3/2 (L,C,R,l,r) + LFE ch, ~1510.00 kbps avg
Формат субтитров: softsub (SRT)

х264:

Код:
x264 [info]: frame I:1222  Avg QP:19.91  size: 97343
x264 [info]: frame P:29536 Avg QP:20.81  size: 47533
x264 [info]: frame B:132852 Avg QP:22.20  size: 25436

MediaInfo

Код:
Общее
Уникальный идентификатор         : 212403001134992624646996586935432360282 (0x9FCB547BF3C0A1B8B06D62CA3E95B15A)
Полное имя                       : E:\торрент\Shallow Hal(2001)BDRip.mkv
Формат                           : Matroska
Версия формата                   : Version 2
Размер файла                     : 6,38 Гбайт
Продолжительность                : 1 ч. 53 м.
Общий поток                      : 8027 Кбит/сек
Дата кодирования                 : UTC 2012-01-06 08:34:38
Программа кодирования            : mkvmerge v5.2.1 ('A Far Off Place') built on Jan  2 2012 23:21:10
Библиотека кодирования           : libebml v1.2.3 + libmatroska v1.3.0
Видео
Идентификатор                    : 1
Формат                           : AVC
Формат/Информация                : Advanced Video Codec
Профиль формата                  : [email protected]
Параметр CABAC формата           : Да
Параметр ReFrames формата        : 9 кадров
Идентификатор кодека             : V_MPEG4/ISO/AVC
Продолжительность                : 1 ч. 53 м.
Битрейт                          : 5750 Кбит/сек
Ширина                           : 1280 пикселей
Высота                           : 694 пикселя
Соотношение сторон               : 16:9
Соотношение сторон в оригинале   : 1,850
Частота кадров                   : 23,976 кадра/сек
Цветовое пространство            : YUV
Субдискретизация насыщенности    : 4:2:0
Битовая глубина                  : 8 бит
Тип развёртки                    : Прогрессивная
Бит/(Пиксели*Кадры)              : 0.270
Размер потока                    : 4,45 Гбайт (70%)
Библиотека кодирования           : x264 core 120 r2120 0c7dab9
Настройки программы              : cabac=1 / ref=9 / deblock=1:-3:-3 / analyse=0x3:0x113 / me=umh / subme=11 / psy=1 / psy_rd=1.05:0.15 / mixed_ref=1 / me_range=32 / chroma_me=1 / trellis=2 / 8x8dct=1 / cqm=0 / deadzone=21,11 / fast_pskip=0 / chroma_qp_offset=-3 / threads=6 / sliced_threads=0 / nr=0 / decimate=1 / interlaced=0 / bluray_compat=0 / constrained_intra=0 / bframes=8 / b_pyramid=2 / b_adapt=2 / b_bias=0 / direct=3 / weightb=1 / open_gop=0 / weightp=2 / keyint=240 / keyint_min=23 / scenecut=40 / intra_refresh=0 / rc_lookahead=80 / rc=2pass / mbtree=1 / bitrate=5750 / ratetol=1.0 / qcomp=0.80 / qpmin=0 / qpmax=69 / qpstep=4 / cplxblur=20.0 / qblur=0.5 / vbv_maxrate=50000 / vbv_bufsize=62500 / nal_hrd=none / ip_ratio=1.40 / aq=2:0.90
Язык                             : English
Аудио #1
Идентификатор                    : 2
Формат                           : DTS
Формат/Информация                : Digital Theater Systems
Идентификатор кодека             : A_DTS
Продолжительность                : 1 ч. 53 м.
Вид битрейта                     : Постоянный
Битрейт                          : 755 Кбит/сек
Каналы                           : 6 каналов
Расположение каналов             : Front: L C R, Side: L R, LFE
Частота                          : 48,0 КГц
Битовая глубина                  : 24 бит
Метод сжатия                     : С потерями
Размер потока                    : 614 Мбайт (9%)
Язык                             : Russian
Аудио #2
Идентификатор                    : 3
Формат                           : DTS
Формат/Информация                : Digital Theater Systems
Идентификатор кодека             : A_DTS
Продолжительность                : 1 ч. 53 м.
Вид битрейта                     : Постоянный
Битрейт                          : 1510 Кбит/сек
Каналы                           : 6 каналов
Расположение каналов             : Front: L C R, Side: L R, LFE
Частота                          : 48,0 КГц
Битовая глубина                  : 24 бит
Метод сжатия                     : С потерями
Размер потока                    : 1,20 Гбайт (19%)
Язык                             : English
Текст #1
Идентификатор                    : 4
Формат                           : UTF-8
Идентификатор кодека             : S_TEXT/UTF8
Идентификатор кодека/Информация  : UTF-8 Plain Text
Язык                             : Russian
Текст #2
Идентификатор                    : 5
Формат                           : UTF-8
Идентификатор кодека             : S_TEXT/UTF8
Идентификатор кодека/Информация  : UTF-8 Plain Text
Язык                             : English
Меню
00:00:00.000                     : en:Chapter 01
00:04:21.552                     : en:Chapter 03
00:06:33.101                     : en:Chapter 05
00:08:44.190                     : en:Chapter 07
00:10:11.819                     : en:Chapter 09
00:12:08.686                     : en:Chapter 11
00:17:32.176                     : en:Chapter 13
00:21:18.777                     : en:Chapter 15
00:27:11.254                     : en:Chapter 17
00:31:58.082                     : en:Chapter 19
00:35:05.144                     : en:Chapter 21
00:38:18.546                     : en:Chapter 23
00:41:55.596                     : en:Chapter 25
00:44:51.063                     : en:Chapter 27
00:48:30.657                     : en:Chapter 29
00:53:33.710                     : en:Chapter 31
00:56:12.827                     : en:Chapter 33
01:01:26.599                     : en:Chapter 35
01:04:30.116                     : en:Chapter 37
01:06:55.678                     : en:Chapter 39
01:10:14.668                     : en:Chapter 41
01:16:46.685                     : en:Chapter 43
01:20:02.422                     : en:Chapter 45
01:23:42.475                     : en:Chapter 47
01:28:33.516                     : en:Chapter 49
01:32:24.372                     : en:Chapter 51
01:39:22.748                     : en:Chapter 53
01:45:47.049                     : en:Chapter 55
01:53:43.650                     : en:Chapter 56

Скриншоты

       

_________________
Человек – это канат, натянутый между животным и сверхчеловеком, – канат над пропастью.
В человеке ценно то, что он мост, а не цель. Фридрих Ницше
Other forum [Profile] [PM]
Similar theme
Forum Topic Author Torrent Replies Last Post
./templates/default/images/folder_dl.gif Техническая и научно-популярная литература Вадим Долгов | Потаенная жизнь Древней Руси. Быт, нравы, любовь [2009] [FB2] Omen
0 | 1

0 | 564

1

2013-04-30 18:33
Omen Latest
./templates/default/images/folder_dl.gif Современная проза, классика, поэзия Понсон дю Террайль Пьер Алексис - Варфоломеевская ночь 01. Любовные похождения Трефового Валета [Деркач Леонид, 2013 г., 96 kbps, MP3] Omen
1 | 0

0 | 888

0

2014-02-03 23:32
Omen Latest
./templates/default/images/folder_dl.gif Приключения и квесты Mahjong Detective: The Stolen Love / Маджонг Детектив. Похищенная Любовь [P] [RUS] (2015) Omen
2 | 0

0 | 2095

25

2015-06-08 21:00
Omen Latest
Display posts from previous:    
Reply to topic

The time now is: Today 13:31

All times are GMT + 3 Hours



You cannot post new topics in this forum
You cannot reply to topics in this forum
You cannot edit your posts in this forum
You cannot delete your posts in this forum
You cannot vote in polls in this forum
You cannot attach files in this forum
You cannot download files in this forum