Today is a free download without charge Download

Отель / Hotel (Валерий Токмаков) [1988, Рисованный мультфильм, SATRip]

Reply to topic
 
Author
Message

Omen ®

Longevity: 8 years 11 months

Posts: 181086

Торрент-статистика

Post 31-Jul-2014 11:34

[Quote]

Hotel (Отель)
Страна: CCCР
Жанр: Рисованный мультфильм
Продолжительность: 00:04:40
Год выпуска: 1988
Русские субтитры: нет
Режиссёр: Валерий Токмаков
Описание: Мультфильм, отражающий реальность времен СССР, показывающий социальную разницу интуриста и гражданина собственной страны на примере бытовых условий. (для взрослых)
Доп. информация: «Экран»
Сценарий: Валерий Токмаков
Композитор:Л.Квинт,Э.Артемьев
Оператор:И.Шкамарда
Благодарность за исходный материал ITARTASS
Качество: SATRip
Формат: AVI
Видео: 704x528 (1.33:1), 25 fps, XviD MPEG-4 ~2144 kbps avg, 0.23 bit/pixel
Аудио: 48 kHz, AC3 Dolby Digital, 1/0 (C) ch, ~192.00 kbps avg
Субтитры: нет

Подробные технические данные

Format : AVIFormat/Info : Audio Video InterleaveFile size : 78.6 MiBDuration : 4mn 40sOverall bit rate : 2 347 KbpsWriting application : VirtualDubModRus 1.5.10.2 (build 2542/release)Copyright : Rutracker.orgComment : SATRip by dvdss
VideoID : 0Format : MPEG-4 VisualFormat profile : Advanced [email protected] settings, BVOP : 2Format settings, QPel : NoFormat settings, GMC : No warppointsFormat settings, Matrix : CustomCodec ID : XVIDCodec ID/Hint : XviDDuration : 4mn 40sBit rate : 2 145 KbpsWidth : 704 pixelsHeight : 528 pixelsDisplay aspect ratio : 5:4Original display aspect ratio : 4:3Frame rate : 25.000 fpsColor space : YUVChroma subsampling : 4:2:0Bit depth : 8 bitsScan type : ProgressiveCompression mode : LossyBits/(Pixel*Frame) : 0.231Stream size : 71.8 MiB (91%)Writing library : XviD 65
AudioID : 1Format : AC-3Format/Info : Audio Coding 3Mode extension : CM (complete main)Format settings, Endianness : BigCodec ID : 2000Duration : 4mn 40sBit rate mode : ConstantBit rate : 192 KbpsChannel(s) : 1 channelChannel positions : Front: CSampling rate : 48.0 KHzBit depth : 16 bitsCompression mode : LossyStream size : 6.43 MiB (8%)Alignment : Split accross interleavesInterleave, duration : 40 ms (1.00 video frame)Interleave, preload duration : 500 ms

Скриншоты

Other forum [Profile] [PM]
Similar theme
Forum Topic Author Torrent Replies Last Post
./templates/default/images/folder_dl.gif Бизнес, Право, Экономика, Финансы Надежда Котельникова | Лайфхаки по управлению личными финансами (2018) [PDF] }{@R0N
1 | 0

0 | 1698

12

2018-03-25 23:00
}{@R0N Latest
Display posts from previous:    
Reply to topic

The time now is: Today 12:49

All times are GMT + 3 Hours



You cannot post new topics in this forum
You cannot reply to topics in this forum
You cannot edit your posts in this forum
You cannot delete your posts in this forum
You cannot vote in polls in this forum
You cannot attach files in this forum
You cannot download files in this forum