Today is a free download without charge Download

Двое (2011) SATRip

Reply to topic
 
Author
Message

Omen ®

Longevity: 8 years

Posts: 181087

Торрент-статистика

Post 07-Jan-2012 22:12

[Quote]

Двое (2011) SATRip- Русское название: Двое
Год выпуска: 2011
Производство: Россия
Жанр: Детектив, Боевик
Перевод: Оригинал
Субтитры: Отсутствуют
Дата российской премьеры: 7 января 2012 (НТВ, Россия)-Режиссер: Виктор Татарский (II)
Продюсер: Инесса Юрченко, Сергей Щеглов (II), Алексей Рыбин (креатив.)
Актеры: Павел Майков, Денис Синявский, Павел Делонг, Валерий Ошомков, Игорь Ключников, Юлия Денисова-Описание фильма:
Кирилл Баженов и Эдуард Антипов не виделись больше 20 лет. Когда-то они вместе воевали в Афганистане, но потом судьба развела их надолго. И вот теперь они встретились. Кирилл – преуспевающий бизнесмен, счастливый семьянин. Эдуард давно разведен, за пьянство его выгнали с работы, он живет в общежитии и перебивается случайными заработками. У бывших друзей нет ничего общего. Но ситуация складывается так, что Кирилла обвиняют в убийстве, которого он не совершал. Вместе с Эдуардом они пытаются найти выход из создавшегося положения и ищут настоящего убийцу. Оказывается, в жизни Кирилла все не так хорошо и просто, как кажется на первый взгляд. Ему придется пройти через боль, ложь и предательство. И только настоящий друг пройдет с ним все испытания до конца. Ведь друзья не бывают бывшими…-Информация о фильме с ресурса kino-teatr.ru-Продолжительность: 1:25:20
Качество видео: SATRip-Видеокодек: Xvid
Битрейт видео: ~1900 kb/s
Размер кадра: 704х384
Аудиокодек: MP3 2,0
Битрейт аудио: 192 kb/s- -

MediaInfo

Код:
Общее
Полное имя                       : E:\торрент\Dvoe.2012.SATRip.avi
Формат                           : AVI
Формат/Информация                : Audio Video Interleave
Размер файла                     : 1,25 Гбайт
Продолжительность                : 1 ч. 25 м.
Общий поток                      : 2102 Кбит/сек
Программа кодирования            : VirtualDubModRus 1.5.10.1 (build 2439/release)
Библиотека кодирования           : VirtualDubMod build 2439/release
Видео
Идентификатор                    : 0
Формат                           : MPEG-4 Visual
Параметр BVOP формата            : 3
Параметр QPel формата            : Нет
Параметр GMC формата             : Без точки перехода
Параметр матрицы формата         : Default (H.263)
Режим смешивания                 : Сжатый битовый поток
Идентификатор кодека             : DX50
Идентификатор кодека/Подсказка   : DivX 5
Продолжительность                : 1 ч. 25 м.
Битрейт                          : 1900 Кбит/сек
Ширина                           : 704 пикселя
Высота                           : 384 пикселя
Соотношение сторон               : 16:9
Частота кадров                   : 25,000 кадров/сек
Цветовое пространство            : YUV
Субдискретизация насыщенности    : 4:2:0
Битовая глубина                  : 8 бит
Тип развёртки                    : Прогрессивная
Метод сжатия                     : С потерями
Бит/(Пиксели*Кадры)              : 0.281
Размер потока                    : 1,13 Гбайт (90%)
Библиотека кодирования           : DivX 6.8.5 (UTC 2009-08-20)
Аудио
Идентификатор                    : 1
Формат                           : MPEG Audio
Версия формата                   : Version 1
Профиль формата                  : Layer 3
Режим                            : Joint stereo
Идентификатор кодека             : 55
Идентификатор кодека/Подсказка   : MP3
Продолжительность                : 1 ч. 25 м.
Вид битрейта                     : Постоянный
Битрейт                          : 192 Кбит/сек
Каналы                           : 2 канала
Частота                          : 48,0 КГц
Метод сжатия                     : С потерями
Размер потока                    : 117 Мбайт (9%)
Выравнивание                     : Разделение по промежуткам
Продолжительность промежутка     : 40  мс. (1,00 видеокадр)
Время предзагрузки промежутка    : 500  мс.
Скриншоты:
               


Last edited by Omen on 2012-01-08 00:39; edited 1 time in total
Other forum [Profile] [PM]
Display posts from previous:    
Reply to topic

The time now is: Today 16:53

All times are GMT + 3 Hours



You cannot post new topics in this forum
You cannot reply to topics in this forum
You cannot edit your posts in this forum
You cannot delete your posts in this forum
You cannot vote in polls in this forum
You cannot attach files in this forum
You cannot download files in this forum