Today is a free download without charge Download

Высоцкий. Спасибо, что живой (Петр Буслов) [2011, Россия, драма, биография, DVD5]

Reply to topic
 
Author
Message

Relizer ®

Gender:

Longevity: 9 years 4 months

Posts: 233

Торрент-статистика

Post 07-Jan-2012 20:45

[Quote]

Высоцкий. Спасибо, что живой
Два часа настоящей жизни
- Оригинальное название: Высоцкий. Спасибо, что живой
Год выпуска: 2011
Производство: Дирекция Кино [Россия]
Жанр: Драма, Биография
Перевод: Оригинальный язык [Русский]
Субтитры: Отсутствуют
Дата мировой премьеры: 1 декабря 2011
Дата российской премьеры: 1 декабря 2011, «WDSSPR»
Дата выхода DVD релиза: 19 января 2012, «Флагман-Трейд»
Режиссер: Петр Буслов
Актеры: Оксана Акиньшина, Сергей Безруков, Андрей Смоляков, Иван Ургант, Максим Леонидов, Андрей Панин, Владимир Ильин, Дмитрий Астрахан, Анна Ардова, Владимир Меньшов
Описание фильма:
Действие фильма разворачивается в 1979 году, когда на одном из концертов Высоцкому становится плохо с сердцем. Он переживает клиническую смерть.
Продолжительность: 02:06:45
Качество видео: DVD5
Видеокодек: MPEG-2
Размер кадра: [email protected] (PAL 16:9)
Битрейт видео: ~4400 kbps, Бит/(Пиксели*Кадры): 0.428
Аудиокодек: AC3 5.1
Битрейт аудио: 448 kbps

DVDInfo…

Title: Высоцкий.Спасибо,Что.Живой.(2011).DVD5
Size: 4.36 Gb ( 4 573 840,00 KBytes ) - DVD-5
Enabled regions: 1, 2, 3, 4, 5, 6, 7, 8
VTS_01 :
Play Length: 00:00:01
Video: PAL 16:9 (720x576) VBR, Auto Letterboxed
Audio:
Russian (Dolby AC3, 2 ch)
Russian (Dolby AC3, 6 ch)
Russian (DTS, 6 ch)
VTS_02 :
Play Length: 02:06:45+00:00:01
Video: PAL 16:9 (720x576) VBR, Auto Letterboxed
Audio:
Russian (Dolby AC3, 6 ch)
VTS_03 :
Play Length: 00:00:00
Video: PAL 16:9 (720x576) VBR, Auto Letterboxed
Audio:
Russian (Dolby AC3, 2 ch)

MediaInfo…

Полное имя : G:\!my.torrent\Высоцкий.Спасибо,Что.Живой.(2011).DVD5\VIDEO_TS\VTS_02_1.VOB
Формат : MPEG-PS
Размер файла : 1024 Мбайт
Продолжительность : 28 м.
Общий поток : 4988 Кбит/сек
Видео
Идентификатор : 224 (0xE0)
Формат : MPEG Video
Версия формата : Version 2
Профиль формата : [email protected]
Параметр BVOP формата : Да
Параметр матрицы формата : Выборочная
Продолжительность : 28 м.
Вид битрейта : Переменный
Битрейт : 4441 Кбит/сек
Максимальный битрейт : 8507 Кбит/сек
Ширина : 720 пикселей
Высота : 576 пикселей
Соотношение сторон : 16:9
Частота кадров : 25,000 кадров/сек
Стандарт вещания : PAL
Цветовое пространство : YUV
Субдискретизация насыщенности : 4:2:0
Битовая глубина : 8 бит
Тип развёртки : Чересстрочная
Порядок развёртки : Верхнее поле первое
Метод сжатия : С потерями
Бит/(Пиксели*Кадры) : 0.428
Размер потока : 912 Мбайт (89%)
Аудио
Идентификатор : 189 (0xBD)-129 (0x81)
Формат : AC-3
Формат/Информация : Audio Coding 3
Расширение режима : CM (complete main)
Режим смешивания : DVD-Video
Продолжительность : 28 м.
Вид битрейта : Постоянный
Битрейт : 448 Кбит/сек
Каналы : 6 каналов
Расположение каналов : Front: L C R, Side: L R, LFE
Частота : 48,0 КГц
Битовая глубина : 16 бит
Метод сжатия : С потерями
Размер потока : 92,0 Мбайт (9%)
Меню

Изготовление релиза:

Исходник взят тут: [url=/forum/viewtopic.php?t=432188]Высоцкий. Спасибо, что живой (2011) DVD9[/url] [Спасибо Krucha]
Удалены: дополнительные материалы, предупреждения и заставки, Русские AC3 2.0 и DTS аудио-дороги.
Видео сжато: финальные титры на 60%, сжатие самого фильма на 27%.
Меню: сделано статичным, недействующие кнопки удалены.
Дополнительные материалы: отсутствуют
Обработка и сжатие: DVD ReMake Pro + DVD Rebuilder + CCE SP2 1.00.01.09 [9 проходов] + Работа с меню (Adobe PhotoShop и MuxMan)

Log-файл DVD-Rebuilder-а:

[19:18:24] Phase I, PREPARATION started.
- DVD-RB v1.28.2
- AVISYNTH 2.5.8.0
- CCE 1.0.1.9 encoder selected.
- "Adaptive Quantizer Matrices" is enabled.
- Source: !!!!
- VTS_02: 3 032 682 sectors.
-- Scanning and writing .D2V & .AVS files
-- Processed 190 187 frames.
-- Building .AVS and .ECL files
- Reduction Level for DVD-5: 71,8%
- Overall Bitrate : 4 338Kbs
- Space for Video : 4 028 158KB
- Analyzing VTS_02 for optimal Q factor.
-- TargetSize (sectors):2 044 289
-- Sampling 1908 of 190187 frames.
-- Predicted size (sectors) at Q=24: 1 892 535
-- Predicted size (sectors) at Q=21: 2 052 546
- Q Value selected: 21
- Redistributing Final_Q: 21
- HIGH/LOW/TYPICAL Bitrates: 5 229/2 833/4 338 Kbs
[19:36:16] Phase I, PREPARATION completed in 18 minutes.
[19:47:45] Phase II ENCODING started
- Creating M2V for VTS_02 segment 0
- Creating M2V for VTS_02 segment 1
- Creating M2V for VTS_02 segment 2
- Creating M2V for VTS_02 segment 3
- Creating M2V for VTS_02 segment 4
- Creating M2V for VTS_02 segment 5
- Creating M2V for VTS_02 segment 6
- Creating M2V for VTS_02 segment 7
- Creating M2V for VTS_02 segment 8
- Creating M2V for VTS_02 segment 9
- Creating M2V for VTS_02 segment 10
- Creating M2V for VTS_02 segment 11
- Creating M2V for VTS_02 segment 12
- Creating M2V for VTS_02 segment 13
- Creating M2V for VTS_02 segment 14
[21:57:09] Phase II ENCODING completed in 130 minutes.
[21:57:36] Phase III, REBUILD started.
- Copying IFO, BUP, and unaltered files...
- Processing VTS_02
- Reading/processing TMAP table...
- Rebuilding seg 0 VOBID 1 CELLID 1
- Rebuilding seg 1 VOBID 1 CELLID 2
- Rebuilding seg 2 VOBID 1 CELLID 3
- Rebuilding seg 3 VOBID 1 CELLID 4
- Rebuilding seg 4 VOBID 1 CELLID 5
- Rebuilding seg 5 VOBID 1 CELLID 6
- Rebuilding seg 6 VOBID 1 CELLID 7
- Rebuilding seg 7 VOBID 1 CELLID 8
- Rebuilding seg 8 VOBID 1 CELLID 9
- Rebuilding seg 9 VOBID 1 CELLID 10
- Rebuilding seg 10 VOBID 1 CELLID 11
- Rebuilding seg 11 VOBID 1 CELLID 12
- Rebuilding seg 12 VOBID 1 CELLID 13
- Updating NAVPACKS for VOBID_01
- Rebuilding seg 13 VOBID 2 CELLID 1
- Updating NAVPACKS for VOBID_02
- Rebuilding seg 14 VOBID 3 CELLID 1
- Updating NAVPACKS for VOBID_03
- Updated VTS_C_ADT.
- Updated VTS_VOBU_ADMAP.
- Updated IFO: VTS_02_0.IFO
- Updating TMAP table...
- Correcting VTS Sectors...
[22:05:12] Phase III, REBUILD completed in 8 minutes.
Done.

Скриншоты меню...

   
Скриншоты:
       
       
Время раздачи: с 20:00 до 8:00, по возможности 24/7

_________________
Хк Локомотив #52# Макс ты был моим замечательным другом, пусть земля будет тебе пухом.. #52#07/09/2011- Обращаться с девочкой надо аккуратно, как с ёлочкой...Вырубить и отнести домой:)


Last edited by Relizer on 2012-01-07 23:39; edited 1 time in total
Other forum [Profile] [PM]

Dracula

Longevity: 7 years 6 months

Posts: 11221

Торрент-статистика

Post 08-Jan-2012 00:30 (after 3 hours)

Топик был перенесен из форума Наше кино (2001 - 2011) в форум Зарубежное кино (DVD)



sassad
 
Display posts from previous:    
Reply to topic

The time now is: Today 05:33

All times are GMT + 3 Hours



You cannot post new topics in this forum
You cannot reply to topics in this forum
You cannot edit your posts in this forum
You cannot delete your posts in this forum
You cannot vote in polls in this forum
You cannot attach files in this forum
You cannot download files in this forum