Today is a free download without charge Download

Шпион, выйди вон! / Tinker Tailor Soldier Spy (Томас Альфредсон / Tomas Alfredson) [2011, Германия, Франция, Великобритания, триллер, детектив, DVD9] R5 «New Dream media»

Reply to topic
 
Author
Message

voovaz ®

Gender:

Longevity: 9 years 5 months

Posts: 87

Торрент-статистика

Post 06-Jan-2012 19:09

[Quote]

-Шпион, выйди вон! / Tinker Tailor Soldier Spy-«Секретная информация будет раскрыта» -Страна: Германия, Франция, Великобритания
Студия: Canal+ [fr], Ciné Cinémas, Karla Films, Kinowelt Filmproduktion, Paradis Films, Studio Canal, Working Title Films
Жанр: триллер, детектив
Год выпуска: 2011
Мировая премьера: 5 сентября 2011
Российская премьера: 8 декабря 2011, «Top Film Distribution»
Дата выхода DVD: 19 января 2012, «New Dream media»
Продолжительность: 02:02:08
Перевод: Профессиональный (дублированный) [Лицензия]
Cубтитры: украинские
Оригинальная аудиодорожка: английский-Режиссер: Томас Альфредсон / Tomas Alfredson-В ролях: Гари Олдман, Колин Фёрт, Том Харди, Джон Хёрт, Тоби Джонс, Марк Стронг, Бенедикт Камбербэтч, Кьяран Хайндс, Константин Хабенский, Светлана Ходченкова-Описание: Многие сотрудники британской разведки догадывались, что в ее руководстве давно засел «крот», работающий на Россию. Но те, кто отваживался об этом заявлять открыто, почему-то оказывались в отставке. Остальные предпочитали помалкивать. Но подтверждение существования русского агента пришло с совсем неожиданной стороны. Начинается тайное расследование, возглавляемое находящимся в отставке Джорджем Смайли. И никто, включая высшее руководство разведки, не должен догадаться, что на крота снова объявлена охота.-Бонусы: нет- -Качество: DVD9 R5
Формат: DVD-Video
Видео кодек: MPEG2
Аудио кодек: AC3
Видео: PAL 16:9 (720x576(0.592)) MPEG Video, 25,000 кадр/сек, 6134 Кбит/сек
Аудио #1: Russian (Dolby AC3, 6 ch) 384 Кбит/сек, 48,0 КГц
Аудио #2: English (Dolby AC3, 6 ch) 384 Кбит/сек, 48,0 КГц-
-

DVDInfo

Title: Рабочий
Size: 6.13 Gb ( 6 422 540 KBytes ) - DVD-9
Enabled regions: 1, 2, 3, 4, 5, 6, 7, 8
VTS_01 :
Play Length: 00:00:08
Video: PAL 4:3 (720x576) VBR
VTS_02 :
Play Length: 00:00:13
Video: PAL 16:9 (720x576) VBR, Auto Letterboxed
VTS_03 :
Play Length: 02:02:08
Video: PAL 16:9 (720x576) VBR, Auto Letterboxed
Audio:
Russian (Dolby AC3, 6 ch)
English (Dolby AC3, 6 ch)
Subtitles:
Ukrainian
VTS_04 :
Play Length: 00:02:08+00:01:12
Video: PAL 16:9 (720x576) VBR, Auto Letterboxed
Audio:
English (Dolby AC3, 2 ch)
Menu Video:
PAL 4:3 (720x576) VBR
Auto Pan&Scan, Auto Letterboxed
Menu Russian Language Unit :
Root Menu
Chapter (PTT) Menu
Audio Menu
Angle menu

MediaInfo

Общее
Полное имя : G:\Новинки 2011\Shpion.vyjdi.von.2011.DVD9\VIDEO_TS\VTS_03_1.VOB
Формат : MPEG-PS
Размер файла : 1024 Мбайт
Продолжительность : 20 м.
Общий поток : 7042 Кбит/сек
Видео
Идентификатор : 224 (0xE0)
Формат : MPEG Video
Версия формата : Version 2
Профиль формата : [email protected]
Параметр BVOP формата : Да
Параметр матрицы формата : Выборочная
Продолжительность : 20 м.
Вид битрейта : Переменный
Битрейт : 6134 Кбит/сек
Максимальный битрейт : 8000 Кбит/сек
Ширина : 720 пикселей
Высота : 576 пикселей
Соотношение сторон : 16:9
Частота кадров : 25,000 кадров/сек
Стандарт вещания : PAL
Цветовое пространство : YUV
Субдискретизация насыщенности : 4:2:0
Битовая глубина : 8 бит
Тип развёртки : Чересстрочная
Порядок развёртки : Верхнее поле первое
Метод сжатия : С потерями
Бит/(Пиксели*Кадры) : 0.592
Размер потока : 892 Мбайт (87%)
Аудио #1
Идентификатор : 189 (0xBD)-128 (0x80)
Формат : AC-3
Формат/Информация : Audio Coding 3
Расширение режима : CM (complete main)
Режим смешивания : DVD-Video
Продолжительность : 20 м.
Вид битрейта : Постоянный
Битрейт : 384 Кбит/сек
Каналы : 6 каналов
Расположение каналов : Front: L C R, Side: L R, LFE
Частота : 48,0 КГц
Битовая глубина : 16 бит
Метод сжатия : С потерями
Размер потока : 55,8 Мбайт (5%)
Аудио #2
Идентификатор : 189 (0xBD)-129 (0x81)
Формат : AC-3
Формат/Информация : Audio Coding 3
Расширение режима : CM (complete main)
Режим смешивания : DVD-Video
Продолжительность : 20 м.
Вид битрейта : Постоянный
Битрейт : 384 Кбит/сек
Каналы : 6 каналов
Расположение каналов : Front: L C R, Side: L R, LFE
Частота : 48,0 КГц
Битовая глубина : 16 бит
Метод сжатия : С потерями
Размер потока : 55,8 Мбайт (5%)

Скриншоты меню

     

Скриншоты фильма

               
-
-
-
-


Last edited by voovaz on 2012-03-15 16:40; edited 2 times in total
Other forum [Profile] [PM]
Similar theme
Forum Topic Author Torrent Replies Last Post
./templates/default/images/folder_dl.gif Техническая и научно-популярная литература Евгений Рудометов, Виктор Рудометов | Шпионские штучки. Электронные средства коммерческой разведки (2000) [PDF] UndegraundMen
1 | 0

0 | 1385

13

2013-11-25 21:10
UndegraundMen Latest
./templates/default/images/folder_dl.gif Техническая и научно-популярная литература Олег Шишкин | Битва за Гималаи. НКВД: магия и шпионаж (1999) [PDF] Omen
1 | 0

0 | 513

4

2015-03-09 08:26
Omen Latest
./templates/default/images/folder_dl.gif Техническая и научно-популярная литература С.Л. Корякин-Черняк | Шпионские штучки своими руками (2012) [PDF] }{@R0N
1 | 0

0 | 2135

8

2017-05-01 21:20
}{@R0N Latest
./templates/default/images/folder_dl.gif Техническая и научно-популярная литература С.Л. Корякин-Черняк | Квартирный вопрос. Домашняя электросеть, шпионские штучки, освещение, сварка и не только... (2009) [PDF, DJVU] }{@R0N
1 | 0

0 | 7285

16

2017-05-13 13:16
}{@R0N Latest
Display posts from previous:    
Reply to topic

The time now is: Today 09:58

All times are GMT + 3 Hours



You cannot post new topics in this forum
You cannot reply to topics in this forum
You cannot edit your posts in this forum
You cannot delete your posts in this forum
You cannot vote in polls in this forum
You cannot attach files in this forum
You cannot download files in this forum