Today is a free download without charge Download

Высоцкий. Спасибо, что живой (2011) DVDRip

Reply to topic
 
Author
Message

Omen ®

Longevity: 8 years

Posts: 181087

Торрент-статистика

Post 05-Jan-2012 20:43

[Quote]

Высоцкий. Спасибо, что живой - Русское название: Высоцкий. Спасибо, что живой
Год выпуска: 2011
Производство: Россия, Дирекция Кино
Жанр: Драма, Биография
Перевод: Оригинал-Дата мировой премьеры: 30 ноября 2011
Дата российской премьеры: 1 декабря 2011, «WDSSPR»-Режиссер: Петр Буслов
Актеры: Оксана Акиньшина, Сергей Безруков, Андрей Смоляков, Иван Ургант, Максим Леонидов, Андрей Панин, Владимир Ильин, Дмитрий Астрахан, Анна Ардова, Владимир Меньшов-Описание фильма:
Действие фильма разворачивается в 1979 году, когда на одном из концертов Высоцкому становится плохо с сердцем. Он переживает клиническую смерть.- -Продолжительность: 02:06:47
Качество видео: DVDRip-Видеокодек: XviD
Битрейт видео: ~ 1861 kb/s
Размер кадра: 720x304
Аудиокодек: AC-3 5.1
Битрейт аудио: 448 kb/s-

MediaInfo

Код:
Общее
Полное имя                       : E:\торрент\Vusockiy.2011.O.DVDRip.2100Mb_[/*spam*/].avi
Формат                           : AVI
Формат/Информация                : Audio Video Interleave
Профиль формата                  : OpenDML
Размер файла                     : 2,06 Гбайт
Продолжительность                : 2 ч. 6 м.
Общий поток                      : 2321 Кбит/сек
Программа кодирования            : VirtualDubMod 1.5.10.2 (build 2540/release)
Библиотека кодирования           : VirtualDubMod build 2540/release
Видео
Идентификатор                    : 0
Формат                           : MPEG-4 Visual
Профиль формата                  : Advanced [email protected]
Параметр BVOP формата            : 2
Параметр QPel формата            : Нет
Параметр GMC формата             : Без точки перехода
Параметр матрицы формата         : Default (MPEG)
Идентификатор кодека             : XVID
Идентификатор кодека/Подсказка   : XviD
Продолжительность                : 2 ч. 6 м.
Битрейт                          : 1860 Кбит/сек
Ширина                           : 720 пикселей
Высота                           : 304 пикселя
Соотношение сторон               : 2,35:1
Частота кадров                   : 25,000 кадров/сек
Цветовое пространство            : YUV
Субдискретизация насыщенности    : 4:2:0
Битовая глубина                  : 8 бит
Тип развёртки                    : Прогрессивная
Метод сжатия                     : С потерями
Бит/(Пиксели*Кадры)              : 0.340
Размер потока                    : 1,65 Гбайт (80%)
Библиотека кодирования           : XviD 1.2.1 (UTC 2008-12-04)
Аудио
Идентификатор                    : 1
Формат                           : AC-3
Формат/Информация                : Audio Coding 3
Расширение режима                : CM (complete main)
Идентификатор кодека             : 2000
Продолжительность                : 2 ч. 6 м.
Вид битрейта                     : Постоянный
Битрейт                          : 448 Кбит/сек
Каналы                           : 6 каналов
Расположение каналов             : Front: L C R, Side: L R, LFE
Частота                          : 48,0 КГц
Битовая глубина                  : 16 бит
Метод сжатия                     : С потерями
Размер потока                    : 406 Мбайт (19%)
Выравнивание                     : Разделение по промежуткам
Продолжительность промежутка     : 40  мс. (1,00 видеокадр)
Время предзагрузки промежутка    : 500  мс.
-Скриншоты:
           
Other forum [Profile] [PM]
Display posts from previous:    
Reply to topic

The time now is: Today 16:59

All times are GMT + 3 Hours



You cannot post new topics in this forum
You cannot reply to topics in this forum
You cannot edit your posts in this forum
You cannot delete your posts in this forum
You cannot vote in polls in this forum
You cannot attach files in this forum
You cannot download files in this forum