Today is a free download without charge Download

Высоцкий. Спасибо, что живой (2011) DVDRip

Reply to topic
 
Author
Message

Omen ®

Longevity: 8 years 1 month

Posts: 181087

Торрент-статистика

Post 05-Jan-2012 20:27

[Quote]

Высоцкий. Спасибо, что живой - Русское название: Высоцкий. Спасибо, что живой
Год выпуска: 2011
Производство: Россия, Дирекция Кино
Жанр: Драма, Биография
Перевод: Оригинал-Дата мировой премьеры: 30 ноября 2011
Дата российской премьеры: 1 декабря 2011, «WDSSPR»-Режиссер: Петр Буслов
Актеры: Оксана Акиньшина, Сергей Безруков, Андрей Смоляков, Иван Ургант, Максим Леонидов, Андрей Панин, Владимир Ильин, Дмитрий Астрахан, Анна Ардова, Владимир Меньшов-Описание фильма:
Действие фильма разворачивается в 1979 году, когда на одном из концертов Высоцкому становится плохо с сердцем. Он переживает клиническую смерть.- -Продолжительность: 02:06:47
Качество видео: DVDRip-Видеокодек: XviD
Битрейт видео: ~1091 кб/с
Размер кадра: 720x304
Аудиокодек: AC-3 5.1
Битрейт аудио: 448 kb/s-

MediaInfo

Код:
Общее
Полное имя                       : E:\торрент\Vusockiy.2011.O.DVDRip.1400Mb_[/*spam*/].avi
Формат                           : AVI
Формат/Информация                : Audio Video Interleave
Размер файла                     : 1,37 Гбайт
Продолжительность                : 2 ч. 6 м.
Общий поток                      : 1546 Кбит/сек
Программа кодирования            : VirtualDubMod 1.5.4.1 (build 2178/release)
Библиотека кодирования           : VirtualDubMod build 2178/release
Видео
Идентификатор                    : 0
Формат                           : MPEG-4 Visual
Профиль формата                  : Advanced [email protected]
Параметр BVOP формата            : 1
Параметр QPel формата            : Нет
Параметр GMC формата             : Без точки перехода
Параметр матрицы формата         : Выборочная
Идентификатор кодека             : XVID
Идентификатор кодека/Подсказка   : XviD
Продолжительность                : 2 ч. 6 м.
Битрейт                          : 1091 Кбит/сек
Ширина                           : 720 пикселей
Высота                           : 304 пикселя
Соотношение сторон               : 2,35:1
Частота кадров                   : 25,000 кадров/сек
Цветовое пространство            : YUV
Субдискретизация насыщенности    : 4:2:0
Битовая глубина                  : 8 бит
Тип развёртки                    : Прогрессивная
Метод сжатия                     : С потерями
Бит/(Пиксели*Кадры)              : 0.199
Размер потока                    : 989 Мбайт (71%)
Библиотека кодирования           : XviD 64
Аудио
Идентификатор                    : 1
Формат                           : AC-3
Формат/Информация                : Audio Coding 3
Расширение режима                : CM (complete main)
Идентификатор кодека             : 2000
Продолжительность                : 2 ч. 6 м.
Вид битрейта                     : Постоянный
Битрейт                          : 448 Кбит/сек
Каналы                           : 6 каналов
Расположение каналов             : Front: L C R, Side: L R, LFE
Частота                          : 48,0 КГц
Битовая глубина                  : 16 бит
Метод сжатия                     : С потерями
Размер потока                    : 406 Мбайт (29%)
Выравнивание                     : Разделение по промежуткам
Продолжительность промежутка     : 96  мс. (2,40 видеокадра)
Время предзагрузки промежутка    : 96  мс.
-Скриншоты:
             
Other forum [Profile] [PM]

путник

Longevity: 8 years 1 month

Posts: 4

Торрент-статистика

Post 02-Nov-2012 15:05 (after 9 months 27 days)

[Quote]

Спасибо за раздачу,уважаю,помню,слушаю.
Other forum [Profile] [PM]
Display posts from previous:    
Reply to topic

The time now is: Today 07:41

All times are GMT + 3 Hours



You cannot post new topics in this forum
You cannot reply to topics in this forum
You cannot edit your posts in this forum
You cannot delete your posts in this forum
You cannot vote in polls in this forum
You cannot attach files in this forum
You cannot download files in this forum