Today is a free download without charge Download

Быстрый взгляд на Гонконг 3D / The quick look at Hong Kong 3D [2014, Документальный любительский фильм, HDTV-AVC] Half OverUnder / Вертикальная анаморфная стереопара

Reply to topic
 
Author
Message

Omen ®

Longevity: 8 years 8 months

Posts: 181087

Торрент-статистика

Post 20-Jul-2014 17:00

[Quote]

Быстрый взгляд на Гонконг 3D / The quick look at Hong Kong 3D
Год выпуска: 2014
Страна: Россия
Студия: ОБЪЁМ
Жанр: Документальный любительский фильм
Продолжительность: 00:32:12
Русские субтитры: нет
Режиссер на русском: Дмитрий Чуприс
Режиссер на английском: Dmitry Chupris
Описание: Обзорный документальный фильм призван ознакомить зрителя с некоторыми местами Гонконга и Макао, а также ощутить ни с чем не сравнимую атмосферу этих районов.
Качество: HDTV
Контейнер: Mp4
Формат 3D: Half OverUnder / Вертикальная анаморфная стереопара
Видео кодек: h.264
Аудио кодек: AAC
Видео: MPEG-4/AVC [email protected], 1920x1080p (16:9), 29.970 fps, ~11800 Kbps (VBR)
Аудио: AAC 256 Кбит/сек, 48,0 Кгц,16 Бит, Стерео

MediaInfo

General
Complete name : \\Diskstation\upload\The Quick look at Hong Kong 3D_1080p_HalfOU.mp4
Format : MPEG-4
Format profile : JVT
Codec ID : avc1
File size : 2.70 GiB
Duration : 32mn 12s
Overall bit rate mode : Variable
Overall bit rate : 12.0 Mbps
Encoded date : UTC 2014-07-12 06:05:56
Tagged date : UTC 2014-07-12 06:05:56
Video
ID : 1
Format : AVC
Format/Info : Advanced Video Codec
Format profile : [email protected]
Format settings, CABAC : Yes
Format settings, ReFrames : 2 frames
Format settings, GOP : N=1
Codec ID : avc1
Codec ID/Info : Advanced Video Coding
Duration : 32mn 12s
Bit rate mode : Variable
Bit rate : 11.8 Mbps
Maximum bit rate : 15.0 Mbps
Width : 1 920 pixels
Height : 1 080 pixels
Display aspect ratio : 16:9
Frame rate mode : Constant
Frame rate : 29.970 fps
Color space : YUV
Chroma subsampling : 4:2:0
Bit depth : 8 bits
Scan type : Progressive
Bits/(Pixel*Frame) : 0.189
Stream size : 2.64 GiB (98%)
Language : English
Encoded date : UTC 2014-07-12 06:05:56
Tagged date : UTC 2014-07-12 06:05:56
Audio
ID : 2
Format : AAC
Format/Info : Advanced Audio Codec
Format profile : LC
Codec ID : 40
Duration : 32mn 12s
Source duration : 32mn 12s
Bit rate mode : Constant
Bit rate : 256 Kbps
Channel count : 2 channels
Channel positions : Front: L R
Sampling rate : 48.0 KHz
Compression mode : Lossy
Delay relative to video : 33ms
Stream size : 59.0 MiB (2%)
Source stream size : 59.0 MiB (2%)
Language : English
Encoded date : UTC 2014-07-12 06:05:56
Tagged date : UTC 2014-07-12 06:05:56

Скриншоты



Other forum [Profile] [PM]
Similar theme
Forum Topic Author Torrent Replies Last Post
./templates/default/images/folder_dl.gif Отечественные cериалы Любимые женщины Казановы / Серии: 1-4 из 4 (Сергей Быстрицкий) [2014, Мелодрама, HDTVRip-AVC] Omen
1 | 0

0 | 884

4

2014-09-21 23:00
Omen Latest
Display posts from previous:    
Reply to topic

The time now is: Today 01:23

All times are GMT + 3 Hours



You cannot post new topics in this forum
You cannot reply to topics in this forum
You cannot edit your posts in this forum
You cannot delete your posts in this forum
You cannot vote in polls in this forum
You cannot attach files in this forum
You cannot download files in this forum