Today is a free download without charge Download

Про раков (Валентин Ольшванг)[2003.,мультфильм для взрослых, мистика, драма] DVDRip

Reply to topic
 
Author
Message

sashau ®

Gender:

Longevity: 8 years 10 months

Posts: 3497

Торрент-статистика

Post 20-Jul-2014 05:58

[Quote]

Про раков
мультфильм для взрослых- Год выпуска: 2003
Жанр: мультфильм для взрослых, мистика, драма
Режиссер: Валентин Ольшванг
Описание:
По легенде, записанной Д.Зелениным.
История любви крылатого чудища и деревенской девушки.
Фестивали и премии:
2003 г. - МКФ «КРОК», Гран-при (Валентин Ольшванг)
2004 г. - Общероссийский фестиваль анимационных фильмов в Суздале; Приз жюри «За создание яркого и оригинального художественного мира» (Валентин Ольшванг)
2004 г. - КФ детского анимационного кино "Золотая рыбка"; Главный приз (Валентин Ольшванг)
2004 г. - МКФ Cinanima в Эшпиньо; Спец. приз (Валентин Ольшванг)
Продолжительность: 00:14:57
Качество видео: DVDRip

Видеокодек: Xvid
Битрейт видео: ~2313 kbps
Размер кадра: 688x512
Аудио: 48 kHz, AC3 Dolby Digital, 2/0 (L,R) ch, 192 kbps

Отчёт MediaInfo:

Общее
Полное имя : F:\razd\Pro_rakov_(DVDRip).avi
Формат : AVI
Формат/Информация : Audio Video Interleave
Размер файла : 269 Мбайт
Продолжительность : 14 м.
Общий поток : 2515 Кбит/сек
Программа кодирования : VirtualDubModRus 1.5.10.2 (build 2542/release)
Библиотека кодирования : VirtualDubMod build 2542/release
Видео
Идентификатор : 0
Формат : MPEG-4 Visual
Профиль формата : Advanced [email protected]
Параметр BVOP формата : 2
Параметр QPel формата : Нет
Параметр GMC формата : Без точки перехода
Параметр матрицы формата : Default (H.263)
Режим смешивания : Сжатый битовый поток
Идентификатор кодека : XVID
Идентификатор кодека/Подсказка : XviD
Продолжительность : 14 м.
Битрейт : 2313 Кбит/сек
Ширина : 688 пикселей
Высота : 512 пикселей
Соотношение сторон : 5:4
Соотношение сторон в оригинале : 4:3
Частота кадров : 25,000 кадров/сек
Цветовое пространство : YUV
Субдискретизация насыщенности : 4:2:0
Битовая глубина : 8 бит
Тип развёртки : Прогрессивная
Метод сжатия : С потерями
Бит/(Пиксели*Кадры) : 0.263
Размер потока : 247 Мбайт (92%)
Библиотека кодирования : XviD 1.2.1 (UTC 2008-12-04)
Аудио
Идентификатор : 1
Формат : AC-3
Формат/Информация : Audio Coding 3
Расширение режима : CM (complete main)
Параметр Endianness формата : Big
Идентификатор кодека : 2000
Продолжительность : 14 м.
Вид битрейта : Постоянный
Битрейт : 192 Кбит/сек
Каналы : 2 канала
Расположение каналов : Front: L R
Частота : 48,0 КГц
Битовая глубина : 16 бит
Метод сжатия : С потерями
Размер потока : 20,5 Мбайт (8%)
Выравнивание : Разделение по промежуткам
Продолжительность промежутка : 40 мс. (1,00 видеокадр)
Время предзагрузки промежутка : 500 мс.
Скриншоты:
     
     
Other forum [Profile] [PM]
Display posts from previous:    
Reply to topic

The time now is: Today 18:19

All times are GMT + 3 Hours



You cannot post new topics in this forum
You cannot reply to topics in this forum
You cannot edit your posts in this forum
You cannot delete your posts in this forum
You cannot vote in polls in this forum
You cannot attach files in this forum
You cannot download files in this forum