Today is a free download without charge Download

Труп невесты / Corpse Bride (Тим Бёртон / Tim Burton, Майк Джонсон / Mike Johnson) [2005, мультфильм, мюзикл, фэнтези, мелодрама, BDRemux 1080p] DUB + MVO + 2xAVO + UKR + ENG + SUB (rus, eng)

Reply to topic
 
Author
Message

Omen ®

Longevity: 8 years

Posts: 181087

Торрент-статистика

Post 12-Jul-2014 20:00

[Quote]

Труп невесты : Corpse Bride«Ошибка оказалась смертельной» Год выпуска: 2005
Страна: Великобритания, США
Жанр: мультфильм, мюзикл, фэнтези, мелодрама
Продолжительность: 01:17:11
Перевод:
Профессиональный (Дублированный)
Профессиональный (Многоголосый закадровый) - Tycoon
Авторский (Одноголосый закадровый) - Визгунов
Авторский (Одноголосый закадровый) - Гаврилов
русские субтитры: есть-Режиссёр: Тим Бёртон : Tim Burton, Майк Джонсон : Mike Johnson-Роли озвучивали: Джонни Депп, Хелена Бонем Картер, Эмили Уотсон, Трейси Уллмен, Пол Уайтхаус, Джоанна Ламли, Альберт Финни, Ричард Э. Грант, Кристофер Ли, Майкл Гоф
Роли дублировали: Илья Бледный, Жанна Никонова, Ольга Голованова, Лариса Некипелова, Людмила Гнилова-Описание: Действие развивается в европейской деревушке XIX века. Главного героя — молодого человека Виктора — силы тьмы утаскивают в преисподнюю и женят там на таинственном Трупе Невесты, в то время как его настоящая невеста Виктория ожидает своего жениха в мире живых. Несмотря на то, что проживание в Царстве мертвых оказывается много интересней, чем его привычный викторианский образ жизни, Виктор понимает, что свою единственную любовь он не променяет ни на что ни в одном из альтернативных миров…-
Качество: BDRemux 1080p
Формат: MKV
Видео кодек: VC-1
Аудио кодек: AC3
Видео: 1980x1080 , 23,976 fps, ~18,0 Мbps avg, 0.362 bit/pixel
Аудио #1: [RUS] 48 kHz, AC3 Dolby Digital, 3/2 (L,C,R,l,r) + LFE ch, ~384 kbps - DUB
Аудио #2: [RUS] 48 kHz, AC3 Dolby Digital, 3/2 (L,C,R,l,r) + LFE ch, ~448 kbps - MVO - Tycoon
Аудио #3: [RUS] 48 kHz, AC3 Dolby Digital, 2/0 (L,R) ch, ~192 kbps avg - AVO - Визгунов
Аудио #4: [RUS] 48 kHz, AC3 Dolby Digital, 3/2 (L,C,R,l,r) + LFE ch, ~384 kbps - AVO - Гаврилов
Аудио #5: [UKR] 48 kHz, AC3 Dolby Digital, 2/0 (L,R) ch, ~256 kbps avg - MVO
Аудио #6: [ENG] 48 kHz, AC3 Dolby Digital, 3/2 (L,C,R,l,r) + LFE ch, ~640 kbps
Аудио #7: [ENG] 48 kHz, AC3 Dolby Digital, 3/2 (L,C,R,l,r) + LFE ch, ~640 kbps - музыкальное сопровождение
субтитры: 5х русские (Tycoon; SDI Меdiа Grоuр; Stevvie; Tloo-ZaRaZa; Д.Киселев), английские (full)
навигация по главам: 24 главы

MediaInfo

Общее
Уникальный идентификатор : 238261360115949319333774570114156827290 (0xB33F7803862C7994A08290696F67929A)
Полное имя : D:\Im\Труп невесты\Corpse Bride.2005.BDRemux 1080p.mkv
Формат : Matroska
Версия формата : Version 4 / Version 2
Размер файла : 11,5 Гбайт
Продолжительность : 1 ч. 17 м.
Общий поток : 21,4 Мбит/сек
Название фильма : Corpse Bride.2005.BDRemux 1080p -Azureus-
Дата кодирования : UTC 2014-07-12 13:35:30
Программа кодирования : mkvmerge v7.0.0 ('Where We Going') 32bit built on Jun 9 2014 15:08:34
Библиотека кодирования : libebml v1.3.0 + libmatroska v1.4.1
DURATION : 01:15:17.240000000
NUMBER_OF_FRAMES : 841
NUMBER_OF_BYTES : 28690
_STATISTICS_WRITING_APP : mkvmerge v7.0.0 ('Where We Going') 32bit built on Jun 9 2014 15:08:34
_STATISTICS_WRITING_DATE_UTC : 2014-07-12 13:35:30
_STATISTICS_TAGS : BPS DURATION NUMBER_OF_FRAMES NUMBER_OF_BYTES
Видео
Идентификатор : 1
Формат : VC-1
Профиль формата : [email protected]
Идентификатор кодека : V_MS/VFW/FOURCC / WVC1
Идентификатор кодека/Подсказка : Microsoft
Продолжительность : 1 ч. 17 м.
Битрейт : 18,0 Мбит/сек
Ширина : 1920 пикселей
Высота : 1080 пикселей
Соотношение сторон : 16:9
Режим частоты кадров : Постоянный
Частота кадров : 23,976 кадра/сек
Цветовое пространство : YUV
Субдискретизация насыщенности : 4:2:0
Битовая глубина : 8 бит
Тип развёртки : Прогрессивная
Метод сжатия : С потерями
Бит/(Пиксели*Кадры) : 0.362
Размер потока : 9,71 Гбайт (84%)
Язык : English
Default : Да
Forced : Нет
Аудио #1
Идентификатор : 2
Формат : AC-3
Формат/Информация : Audio Coding 3
Расширение режима : CM (complete main)
Параметр Endianness формата : Big
Идентификатор кодека : A_AC3
Продолжительность : 1 ч. 17 м.
Вид битрейта : Постоянный
Битрейт : 384 Кбит/сек
Каналы : 6 каналов
Расположение каналов : Front: L C R, Side: L R, LFE
Частота : 48,0 КГц
Битовая глубина : 16 бит
Метод сжатия : С потерями
Размер потока : 212 Мбайт (2%)
Заголовок : DUB
Язык : Russian
Default : Да
Forced : Нет
Аудио #2
Идентификатор : 3
Формат : AC-3
Формат/Информация : Audio Coding 3
Расширение режима : CM (complete main)
Параметр Endianness формата : Big
Идентификатор кодека : A_AC3
Продолжительность : 1 ч. 17 м.
Вид битрейта : Постоянный
Битрейт : 448 Кбит/сек
Каналы : 6 каналов
Расположение каналов : Front: L C R, Side: L R, LFE
Частота : 48,0 КГц
Битовая глубина : 16 бит
Метод сжатия : С потерями
Размер потока : 247 Мбайт (2%)
Заголовок : MVO - Tycoon
Язык : Russian
Default : Нет
Forced : Нет
Аудио #3
Идентификатор : 4
Формат : AC-3
Формат/Информация : Audio Coding 3
Расширение режима : CM (complete main)
Параметр Endianness формата : Big
Идентификатор кодека : A_AC3
Продолжительность : 1 ч. 17 м.
Вид битрейта : Постоянный
Битрейт : 192 Кбит/сек
Каналы : 2 канала
Расположение каналов : Front: L R
Частота : 48,0 КГц
Битовая глубина : 16 бит
Метод сжатия : С потерями
Размер потока : 106 Мбайт (1%)
Заголовок : AVO - Визгунов
Язык : Russian
Default : Нет
Forced : Нет
Аудио #4
Идентификатор : 5
Формат : AC-3
Формат/Информация : Audio Coding 3
Расширение режима : CM (complete main)
Параметр Endianness формата : Big
Идентификатор кодека : A_AC3
Продолжительность : 1 ч. 17 м.
Вид битрейта : Постоянный
Битрейт : 384 Кбит/сек
Каналы : 6 каналов
Расположение каналов : Front: L C R, Side: L R, LFE
Частота : 48,0 КГц
Битовая глубина : 16 бит
Метод сжатия : С потерями
Размер потока : 212 Мбайт (2%)
Заголовок : AVO - Гаврилов
Язык : Russian
Default : Нет
Forced : Нет
Аудио #5
Идентификатор : 6
Формат : AC-3
Формат/Информация : Audio Coding 3
Расширение режима : CM (complete main)
Параметр Endianness формата : Big
Идентификатор кодека : A_AC3
Продолжительность : 1 ч. 17 м.
Вид битрейта : Постоянный
Битрейт : 256 Кбит/сек
Каналы : 2 канала
Расположение каналов : Front: L R
Частота : 48,0 КГц
Битовая глубина : 16 бит
Метод сжатия : С потерями
Размер потока : 141 Мбайт (1%)
Заголовок : UKR
Язык : Ukrainian
Default : Нет
Forced : Нет
Аудио #6
Идентификатор : 7
Формат : AC-3
Формат/Информация : Audio Coding 3
Расширение режима : CM (complete main)
Параметр Endianness формата : Big
Идентификатор кодека : A_AC3
Продолжительность : 1 ч. 17 м.
Вид битрейта : Постоянный
Битрейт : 640 Кбит/сек
Каналы : 6 каналов
Расположение каналов : Front: L C R, Side: L R, LFE
Частота : 48,0 КГц
Битовая глубина : 16 бит
Метод сжатия : С потерями
Размер потока : 353 Мбайт (3%)
Заголовок : ENG
Язык : English
Default : Нет
Forced : Нет
Аудио #7
Идентификатор : 8
Формат : AC-3
Формат/Информация : Audio Coding 3
Расширение режима : CM (complete main)
Параметр Endianness формата : Big
Идентификатор кодека : A_AC3
Продолжительность : 1 ч. 17 м.
Вид битрейта : Постоянный
Битрейт : 640 Кбит/сек
Каналы : 6 каналов
Расположение каналов : Front: L C R, Side: L R, LFE
Частота : 48,0 КГц
Битовая глубина : 16 бит
Метод сжатия : С потерями
Размер потока : 353 Мбайт (3%)
Заголовок : ENG - music
Язык : English
Default : Нет
Forced : Нет
Текст #1
Идентификатор : 9
Формат : UTF-8
Идентификатор кодека : S_TEXT/UTF8
Идентификатор кодека/Информация : UTF-8 Plain Text
Заголовок : Rus Sub - Tycoon
Язык : Russian
Default : Нет
Forced : Нет
Текст #2
Идентификатор : 10
Формат : UTF-8
Идентификатор кодека : S_TEXT/UTF8
Идентификатор кодека/Информация : UTF-8 Plain Text
Заголовок : Rus Sub - SDI Меdiа Grоuр
Язык : Russian
Default : Нет
Forced : Нет
Текст #3
Идентификатор : 11
Формат : UTF-8
Идентификатор кодека : S_TEXT/UTF8
Идентификатор кодека/Информация : UTF-8 Plain Text
Заголовок : Rus Sub - Д.Киселев
Язык : Russian
Default : Нет
Forced : Нет
Текст #4
Идентификатор : 12
Формат : UTF-8
Идентификатор кодека : S_TEXT/UTF8
Идентификатор кодека/Информация : UTF-8 Plain Text
Заголовок : Rus Sub - Stevvie
Язык : Russian
Default : Нет
Forced : Нет
Текст #5
Идентификатор : 13
Формат : UTF-8
Идентификатор кодека : S_TEXT/UTF8
Идентификатор кодека/Информация : UTF-8 Plain Text
Заголовок : Rus Sub - Tloo-ZaRaZa
Язык : Russian
Default : Нет
Forced : Нет
Текст #6
Идентификатор : 14
Формат : UTF-8
Идентификатор кодека : S_TEXT/UTF8
Идентификатор кодека/Информация : UTF-8 Plain Text
Заголовок : Eng Sub
Язык : English
Default : Нет
Forced : Нет
Меню
00:00:00.000 : en:00:00:00.000
00:02:21.308 : en:00:02:21.308
00:06:29.389 : en:00:06:29.389
00:10:46.145 : en:00:10:46.145
00:14:31.204 : en:00:14:31.204
00:18:53.966 : en:00:18:53.966
00:20:32.731 : en:00:20:32.731
00:23:58.771 : en:00:23:58.771
00:27:20.806 : en:00:27:20.806
00:30:27.659 : en:00:30:27.659
00:33:22.167 : en:00:33:22.167
00:36:17.509 : en:00:36:17.509
00:39:53.391 : en:00:39:53.391
00:43:21.098 : en:00:43:21.098
00:46:19.944 : en:00:46:19.944
00:48:54.598 : en:00:48:54.598
00:52:02.953 : en:00:52:02.953
00:54:50.454 : en:00:54:50.454
00:56:57.080 : en:00:56:57.080
01:00:15.445 : en:01:00:15.445
01:03:45.488 : en:01:03:45.488
01:07:41.057 : en:01:07:41.057
01:11:12.101 : en:01:11:12.101
01:13:26.402 : en:01:13:26.402
Other forum [Profile] [PM]

Dracula

Longevity: 7 years 1 month

Posts: 11392

Торрент-статистика

Post 12-Jul-2014 20:04 (after 4 minutes)

Топик был перенесен из форума Мультфильмы (HD) в форум Мультфильмы


Геннадич
 
Display posts from previous:    
Reply to topic

The time now is: Today 07:30

All times are GMT + 3 Hours



You cannot post new topics in this forum
You cannot reply to topics in this forum
You cannot edit your posts in this forum
You cannot delete your posts in this forum
You cannot vote in polls in this forum
You cannot attach files in this forum
You cannot download files in this forum