Today is a free download without charge Download

Ρϰο 2 / Ɍȋȯ 2 (Кapлоc Caлдaна / Саrlоs Sаldаnha) [2014 г., мультфильм, мюзикл, комедия, приключения, семейный, BDRemux 1080p] (Локализованный видеоряд) Dub + Ukr + Eng + Subs (Rus, Ukr, Eng)

Reply to topic
 
Author
Message

Omen ®

Longevity: 8 years 1 month

Posts: 181087

Торрент-статистика

Post 10-Jul-2014 11:00

[Quote]

- P R E S E N T SРио 2 / Rio 2 - Страна: США
Жанр: мультфильм, комедия, приключения, семейный
Продолжительность: 01:41:11
Год выпуска: 2014
Перевод: Профессиональный (полное дублирование)
Субтитры: есть-Режиссёр: Карлос Салдана / Carlos Saldanha
Роли озвучивали: Энн Хэтэуэй, Джесси Айзенберг, Джейк Т. Остин, Карлиньюс Браун, Кристин Ченоуэт, Джемейн Клемент, Джим Конрой, Рэйчел Кроу, Бернардо де Паула, Нола Донкин, Мигель Феррер, Джейми Фокс, Пирс Гэнон, Энди Гарсиа, Джеффри Гарсиа, Бебель Гилберто, Джордж Лопес, Лесли Манн, Бруно Марс, Трэйси Морган, Родриго Санторо, Амандла Стенберг, Уилл Ай Эм...
Роли дублировали: Татьяна Шилина, Павел Деревянко, Олег Куценко, Ульяна Иващенко, Илья Колесников, Сергей Чихачев, Никита Прозоровский, Марианна Шульц, Пётр Иващенко, Александр Коврижных, Илья Исаев, Анна Денисова, Аркадий Джем, Борис Быстров, Елена Шульман, Ирина Савина, Лариса Некипелова и др.- | | - Нет возрастных ограничений-Описание: Голубчик, Жемчужинка и их трое детей живут счастливой жизнью в волшебном городе Рио-де-Жанейро. Когда Жемчужинка решает, что их детям нужно научиться жить как настоящим птицам, она настаивает на авантюрной поездке в дебри реки Амазонки. Там, пытаясь вписаться в новое окружение, Голубчик начинает беспокоиться, что может потерять Жемчужинку и детей, идущих на зов дикой природы...-Доп. информация: BDRemux 1080p сделан с Blu-Ray диска Rio 2 (2014) Blu-ray EUR 1080p AVC DTS 5.1 (Локализованный видеоряд).
Отдельное спасибо xfiles за подготовку русских и украинских субтитров.
-Сэмпл/Sample (223 MB, 1 минута)-Качество: BDRemux 1080p
Формат: MKV
Видео: 1920x1080 (1.778:1), 23,976 fps, ~24211 kbps avg, 0.487 bit/pixel
Аудио #1: Русский, DTS / 5.1 / 48 kHz / 768 kbps / 24-bit - Дубляж | BD EUR
Аудио #2: Украинский, AC3, 6 ch, 48 kHz, 448 kbps - Дубляж | BD EUR
Аудио #3: English, DTS-HD MA / 7.1 / 48 kHz / 4544 kbps / 24-bit (DTS Core: 5.1-ES / 48 kHz / 1509 kbps / 24-bit) - Original
Субтитры: Русские (полные, форсированные), Украинские (полные), English (Full, SDH, Forced)
Навигация по главам: есть (32 не именованные главы)

MediaInfo

GeneralUnique ID : 242389950196303889782906658819230301906 (0xB65A9B38740C85B2B0FCF8CE90CA7ED2)Complete name : Rio.II.2014.Rus.Video.BDRemux.1080p.dfcbit.mkvFormat : MatroskaFormat version : Version 2File size : 21.1 GiBDuration : 1h 41mnOverall bit rate mode : VariableOverall bit rate : 29.8 MbpsEncoded date : UTC 2014-07-08 04:51:48Writing application : mkvmerge v4.0.0 ('The Stars were mine') built on Jun 6 2010 16:18:42Writing library : libebml v1.0.0 + libmatroska v1.0.0
VideoID : 1Format : AVCFormat/Info : Advanced Video CodecFormat profile : [email protected] settings, CABAC : YesFormat settings, ReFrames : 4 framesCodec ID : V_MPEG4/ISO/AVCDuration : 1h 41mnBit rate mode : VariableBit rate : 23.6 MbpsMaximum bit rate : 33.2 MbpsWidth : 1 920 pixelsHeight : 1 080 pixelsDisplay aspect ratio : 16:9Frame rate mode : ConstantFrame rate : 23.976 fpsColor space : YUVChroma subsampling : 4:2:0Bit depth : 8 bitsScan type : ProgressiveTitle : NTSC, 1920x1080 (1.778:1), Untached ~24211 kbps avg, BDRemux 1080p - tRuAVC & Multfilmy [DFCbit]Language : RussianDefault : YesForced : No
Audio #1ID : 2Format : DTSFormat/Info : Digital Theater SystemsMode : 16Format settings, Endianness : BigCodec ID : A_DTSDuration : 1h 41mnBit rate mode : ConstantBit rate : 768 KbpsChannel(s) : 6 channelsChannel positions : Front: L C R, Side: L R, LFESampling rate : 48.0 KHzBit depth : 24 bitsCompression mode : LossyStream size : 556 MiB (3%)Title : DTS / 5.1 / 48 kHz / 768 kbps / 24-bit - Дубляж | BD EURLanguage : RussianDefault : YesForced : No
Audio #2ID : 3Format : AC-3Format/Info : Audio Coding 3Mode extension : CM (complete main)Format settings, Endianness : BigCodec ID : A_AC3Duration : 1h 41mnBit rate mode : ConstantBit rate : 448 KbpsChannel(s) : 6 channelsChannel positions : Front: L C R, Side: L R, LFESampling rate : 48.0 KHzBit depth : 16 bitsCompression mode : LossyStream size : 324 MiB (2%)Title : AC3, 6 ch, 48 kHz, 448 kbps - Дубляж | BD EURLanguage : UkrainianDefault : NoForced : No
Audio #3ID : 4Format : DTSFormat/Info : Digital Theater SystemsFormat profile : MA / CoreMode : 16Format settings, Endianness : BigCodec ID : A_DTSDuration : 1h 41mnBit rate mode : VariableBit rate : 4 544 Kbps / 1 509 KbpsChannel(s) : 8 channels / 6 channelsChannel positions : Front: L C R, Side: L R, Back: L R, LFE / Front: L C R, Side: L R, LFESampling rate : 48.0 KHzBit depth : 24 bitsCompression mode : Lossless / LossyTitle : DTS-HD MA / 7.1 / 48 kHz / 4544 kbps / 24-bit (DTS Core: 5.1-ES / 48 kHz / 1509 kbps / 24-bit) - OriginalLanguage : EnglishDefault : NoForced : No
Text #1ID : 5Format : UTF-8Codec ID : S_TEXT/UTF8Codec ID/Info : UTF-8 Plain TextTitle : SRT, ПолныеLanguage : RussianDefault : NoForced : No
Text #2ID : 6Format : UTF-8Codec ID : S_TEXT/UTF8Codec ID/Info : UTF-8 Plain TextTitle : SRT, ФорсированныеLanguage : RussianDefault : NoForced : No
Text #3ID : 7Format : UTF-8Codec ID : S_TEXT/UTF8Codec ID/Info : UTF-8 Plain TextTitle : SRT, ПолныеLanguage : UkrainianDefault : NoForced : No
Text #4ID : 8Format : UTF-8Codec ID : S_TEXT/UTF8Codec ID/Info : UTF-8 Plain TextTitle : SRT, FullLanguage : EnglishDefault : NoForced : No
Text #5ID : 9Format : UTF-8Codec ID : S_TEXT/UTF8Codec ID/Info : UTF-8 Plain TextTitle : SRT, (SDH)Language : EnglishDefault : NoForced : No
Text #6ID : 10Format : UTF-8Codec ID : S_TEXT/UTF8Codec ID/Info : UTF-8 Plain TextTitle : SRT, ForcedLanguage : EnglishDefault : NoForced : No
Menu00:00:00.000 : en:Chapter 100:03:10.816 : en:Chapter 200:05:14.314 : en:Chapter 300:08:49.362 : en:Chapter 400:13:02.240 : en:Chapter 500:17:36.305 : en:Chapter 600:19:19.408 : en:Chapter 700:22:30.349 : en:Chapter 800:26:48.690 : en:Chapter 900:29:00.155 : en:Chapter 1000:30:59.691 : en:Chapter 1100:33:46.566 : en:Chapter 1200:36:34.192 : en:Chapter 1300:39:20.233 : en:Chapter 1400:41:32.657 : en:Chapter 1500:45:05.119 : en:Chapter 1600:47:23.090 : en:Chapter 1700:49:58.162 : en:Chapter 1800:52:05.456 : en:Chapter 1900:55:38.919 : en:Chapter 2000:58:10.904 : en:Chapter 2101:02:11.394 : en:Chapter 2201:04:38.083 : en:Chapter 2301:07:03.937 : en:Chapter 2401:09:18.196 : en:Chapter 2501:10:21.342 : en:Chapter 2601:15:17.763 : en:Chapter 2701:17:00.157 : en:Chapter 2801:21:41.855 : en:Chapter 2901:25:24.619 : en:Chapter 3001:29:42.711 : en:Chapter 3101:32:27.959 : en:Chapter 32

Скриншоты

Скриншот с названием мультфильма / Локализация
--BDRemux 1080p

Данный релиз не будет воспроизводиться на бытовых плеерах не поддерживающих MKV и H.264
Other forum [Profile] [PM]

Dracula

Longevity: 7 years 1 month

Posts: 11388

Торрент-статистика

Post 10-Jul-2014 17:19 (after 6 hours)

Топик был перенесен из форума Мультфильмы (HD) в форум Мультфильмы


Геннадич
 
Display posts from previous:    
Reply to topic

The time now is: Today 10:59

All times are GMT + 3 Hours



You cannot post new topics in this forum
You cannot reply to topics in this forum
You cannot edit your posts in this forum
You cannot delete your posts in this forum
You cannot vote in polls in this forum
You cannot attach files in this forum
You cannot download files in this forum