Today is a free download without charge Download

Царь скорпионов: Книга мертвых / The Scorpion King 3: Battle for Redemption (Роэль Рейн / Roel Reiné) [2012, Таиланд, фэнтези, боевик, приключения, BDRip 720p]

Reply to topic
 
Author
Message

Delia ®

Gender:

Longevity: 10 years

Posts: 1821

Торрент-статистика

Post 03-Jan-2012 15:43

[Quote]

Царь скорпионов: Книга мертвыхThe Scorpion King 3: Battle for Redemption Страна: Таиланд
Студия: Universal Pictures
Жанр: фэнтези, боевик, приключения
Год выпуска: 2011
Продолжительность: 01:45:12
Перевод: Дублированный [Лицензия]
Cубтитры: Русские, украинские, английские
Оригинальная аудиодорожка: английский
Режиссер: Роэль Рейн / Roel Reiné
В ролях: Виктор Уэбстер, Рон Перлман, Билли Зейн, Бостин Кристофер, Дэйв Батиста, Кевин «Кимбо Слайс» Фергюсон, Селина Ло, Кристал Вирулшанья, Джеффри Джулиано
Описание: Главным героем фильма "Царь скорпионов 3" является Метаес, которому, по приказу египетского царя Хоруса, предстоит выступить в качестве охранника его союзника, чья жизнь находится в опасности. В случае успеха, царь обещает Метаесу отдать в жены свою дочь Ромусана-Силду, и "Глаз дракона"- легендарный амулет, обладающий способность наделять своего владельца необычайной силой. Однако дочь царя необходимо освободить из плена его брата Талуса...

Тип релиза: BDRip 720p ( исходник BluRay 1080p CHDBits )
Контейнер: MKV
Видео: 4258 kbps , 1280*720 (16:9), в 23,976 fps, AVC ([email protected])
Аудио: Русский, Русский, 48 kHz, 3/2 (L,C,R,l,r) + LFE ch, ~384.00 kbps avg |Дубляж|
Аудио 2: Английский , 48 kHz, 3/2 (L,C,R,l,r) + LFE ch, ~384.00 kbps avg
Формат субтитров: softsub (SRT)

х264

Код:
x264 [info]: frame I:1316  Avg QP:16.12  size:136027
x264 [info]: frame P:40204 Avg QP:20.24  size: 40453
x264 [info]: frame B:110087 Avg QP:22.99  size: 15091

MediaInfo

Код:
Общее
Уникальный идентификатор         : 244829818780045398080279250382054929554 (0xB83082077C9CB6109C1DBAFD4AC6B492)
Полное имя                       : E:\торрент\The Scorpion King.3:Battle for Redemption(2011)BDRip .mkv
Формат                           : Matroska
Размер файла                     : 3,80 Гбайт
Продолжительность                : 1 ч. 45 м.
Общий поток                      : 5155 Кбит/сек
Дата кодирования                 : UTC 2012-05-13 13:55:44
Программа кодирования            : mkvmerge v5.4.0 ('Piper') built on Mar 10 2012 13:34:39
Библиотека кодирования           : libebml v1.2.3 + libmatroska v1.3.0
Видео
Идентификатор                    : 1
Формат                           : AVC
Формат/Информация                : Advanced Video Codec
Профиль формата                  : [email protected]
Параметр CABAC формата           : Да
Параметр ReFrames формата        : 9 кадров
Режим смешивания                 : Container [email protected]
Идентификатор кодека             : V_MPEG4/ISO/AVC
Продолжительность                : 1 ч. 45 м.
Битрейт                          : 4285 Кбит/сек
Ширина                           : 1280 пикс.
Высота                           : 720 пикс.
Соотношение сторон               : 16:9
Частота кадров                   : 23,976 кадр/сек
Цветовое пространство            : YUV
Подвыборка цветности             : 4:2:0
Битовая глубина                  : 8 бит
Тип развёртки                    : Прогрессивная
Бит/(Пиксели*Кадры)              : 0.194
Размер потока                    : 3,15 Гбайт (83%)
Библиотека кодирования           : x264 core 120 r2120 0c7dab9
Настройки программы              : cabac=1 / ref=9 / deblock=1:-2:-2 / analyse=0x3:0x113 / me=umh / subme=11 / psy=1 / psy_rd=1.05:0.15 / mixed_ref=1 / me_range=48 / chroma_me=1 / trellis=2 / 8x8dct=1 / cqm=0 / deadzone=21,11 / fast_pskip=0 / chroma_qp_offset=-3 / threads=6 / sliced_threads=0 / nr=0 / decimate=1 / interlaced=0 / bluray_compat=0 / constrained_intra=0 / bframes=9 / b_pyramid=2 / b_adapt=2 / b_bias=0 / direct=1 / weightb=1 / open_gop=0 / weightp=2 / keyint=240 / keyint_min=23 / scenecut=40 / intra_refresh=0 / rc_lookahead=80 / rc=crf / mbtree=1 / crf=18.8 / qcomp=0.70 / qpmin=0 / qpmax=69 / qpstep=4 / vbv_maxrate=50000 / vbv_bufsize=62500 / crf_max=0.0 / nal_hrd=none / ip_ratio=1.40 / aq=2:0.90
Аудио #1
Идентификатор                    : 2
Формат                           : AC-3
Формат/Информация                : Audio Coding 3
Расширение режима                : CM (complete main)
Идентификатор кодека             : A_AC3
Продолжительность                : 1 ч. 45 м.
Вид битрейта                     : Постоянный
Битрейт                          : 384 Кбит/сек
Каналы                           : 6 каналов
Расположение каналов             : Front: L C R, Side: L R, LFE
Частота                          : 48,0 КГц
Битовая глубина                  : 16 бит
Метод сжатия                     : С потерями
Размер потока                    : 289 Мбайт (7%)
Язык                             : Russian
Аудио #2
Идентификатор                    : 3
Формат                           : AC-3
Формат/Информация                : Audio Coding 3
Расширение режима                : CM (complete main)
Идентификатор кодека             : A_AC3
Продолжительность                : 1 ч. 45 м.
Вид битрейта                     : Постоянный
Битрейт                          : 384 Кбит/сек
Каналы                           : 6 каналов
Расположение каналов             : Front: L C R, Side: L R, LFE
Частота                          : 48,0 КГц
Битовая глубина                  : 16 бит
Метод сжатия                     : С потерями
Размер потока                    : 289 Мбайт (7%)
Язык                             : English
Текст #1
Идентификатор                    : 4
Формат                           : UTF-8
Идентификатор кодека             : S_TEXT/UTF8
Идентификатор кодека/Информация  : UTF-8 Plain Text
Язык                             : Russian
Текст #2
Идентификатор                    : 5
Формат                           : UTF-8
Идентификатор кодека             : S_TEXT/UTF8
Идентификатор кодека/Информация  : UTF-8 Plain Text
Язык                             : Ukrainian
Текст #3
Идентификатор                    : 6
Формат                           : UTF-8
Идентификатор кодека             : S_TEXT/UTF8
Идентификатор кодека/Информация  : UTF-8 Plain Text
Язык                             : English

Скриншоты

       
       

_________________
Человек – это канат, натянутый между животным и сверхчеловеком, – канат над пропастью.
В человеке ценно то, что он мост, а не цель. Фридрих Ницше
Other forum [Profile] [PM]
Display posts from previous:    
Reply to topic

The time now is: Today 05:07

All times are GMT + 3 Hours



You cannot post new topics in this forum
You cannot reply to topics in this forum
You cannot edit your posts in this forum
You cannot delete your posts in this forum
You cannot vote in polls in this forum
You cannot attach files in this forum
You cannot download files in this forum