Today is a free download without charge Download

Бэтмен и тайна женщины-летучей мыши / Batman: Mystery of the Batwoman (Курт Геда / Curt Geda) [2003, мультфильм, фантастика, боевик, триллер, криминал, детектив, BDRemux 1080p] 2xMVO + ENG + SUB (eng)

Reply to topic
 
Author
Message

Omen ®

Longevity: 8 years

Posts: 181087

Торрент-статистика

Post 04-Jul-2014 23:28

[Quote]

Бэтмен и тайна женщины-летучей мыши
Batman: Mystery of the Batwoman
Год выпуска: 2003
Страна: США
Жанр: мультфильм, фантастика, боевик, триллер, криминал, детектив
Продолжительность: 01:04:09
Перевод:
Профессиональный (Многоголосый закадровый) - R5
Профессиональный (Многоголосый закадровый) - TB3
русские субтитры: нет-Режиссёр: Курт Геда : Curt Geda-Роли озвучивали: Кевин Конрой, Кимберли Брукс, Келли Рипа, Элиза Габриелли, Кира Седжвик, Дэвид Огден Стайерз, Кевин Майкл Ричардсон, Джон Вернон, Гектор Элизондо, Ефрем Цимбалист мл.-Описание: Пингвин и Руперт Торн — криминальная когорта, которая собирается заняться контрабандой оружия. Но в Готэм Сити появился новый супер-герой, который имеет другие планы насчет этих предпринимателей — Женщина-летучая мышь! С суперсовременными приспособлениями и крепкими кулаками она стала настоящей грозой преступников…-
Качество: BDRemux 1080p
Формат: MKV
Видео кодек: AVC
Аудио кодек: AC3 : DTS MA
Видео: 1980x1080 , 23,976 fps, ~19,9 Мbps avg, 0.504 bit/pixel
Аудио #1: [RUS] 48 kHz, AC3 Dolby Digital, 3/2 (L,C,R,l,r) + LFE ch, ~448 kbps - R5
Аудио #2: [RUS] 48 kHz, AC3 Dolby Digital, 2/0 (L,R) ch, ~192 kbps avg - TB3
Аудио #3: [ENG] DTS-HD MA / 5.1 / 48 kHz / 3763 kbps / 24-bit (DTS Core: 5.1 / 48 kHz / 1509 kbps / 24-bit)
субтитры: английские (SDH)

MediaInfo

Общее
Уникальный идентификатор : 199599296018211949674289487226624076384 (0x96296D156A19A883BDCA576E4D58EA60)
Полное имя : D:\Im\Бэтмен\Batman. Mystery of the Batwoman.2003.BDRemux 1080p.mkv
Формат : Matroska
Версия формата : Version 4 / Version 2
Размер файла : 11,5 Гбайт
Продолжительность : 1 ч. 14 м.
Режим общего битрейта : Переменный
Общий поток : 22,0 Мбит/сек
Название фильма : Batman: Mystery of the Batwoman.2003.BDRemux 1080p -Azureus-
Дата кодирования : UTC 2014-07-04 19:15:05
Программа кодирования : mkvmerge v7.0.0 ('Where We Going') 32bit built on Jun 9 2014 15:08:34
Библиотека кодирования : libebml v1.3.0 + libmatroska v1.4.1
DURATION : 01:13:49.299000000
NUMBER_OF_FRAMES : 698
NUMBER_OF_BYTES : 26515
_STATISTICS_WRITING_APP : mkvmerge v7.0.0 ('Where We Going') 32bit built on Jun 9 2014 15:08:34
_STATISTICS_WRITING_DATE_UTC : 2014-07-04 19:15:05
_STATISTICS_TAGS : BPS DURATION NUMBER_OF_FRAMES NUMBER_OF_BYTES
Видео
Идентификатор : 1
Формат : AVC
Формат/Информация : Advanced Video Codec
Профиль формата : [email protected]
Параметр CABAC формата : Да
Параметр ReFrames формата : 2 кадра
Идентификатор кодека : V_MPEG4/ISO/AVC
Продолжительность : 1 ч. 14 м.
Вид битрейта : Переменный
Ширина : 1920 пикселей
Высота : 1080 пикселей
Соотношение сторон : 16:9
Режим частоты кадров : Постоянный
Частота кадров : 23,976 кадра/сек
Цветовое пространство : YUV
Субдискретизация насыщенности : 4:2:0
Битовая глубина : 8 бит
Тип развёртки : Прогрессивная
Язык : English
Default : Да
Forced : Нет
Аудио #1
Идентификатор : 2
Формат : AC-3
Формат/Информация : Audio Coding 3
Расширение режима : CM (complete main)
Параметр Endianness формата : Big
Идентификатор кодека : A_AC3
Продолжительность : 1 ч. 14 м.
Вид битрейта : Постоянный
Битрейт : 448 Кбит/сек
Каналы : 6 каналов
Расположение каналов : Front: L C R, Side: L R, LFE
Частота : 48,0 КГц
Битовая глубина : 16 бит
Метод сжатия : С потерями
Размер потока : 240 Мбайт (2%)
Заголовок : MVO - R5
Язык : Russian
Default : Да
Forced : Нет
Аудио #2
Идентификатор : 3
Формат : AC-3
Формат/Информация : Audio Coding 3
Расширение режима : CM (complete main)
Параметр Endianness формата : Big
Идентификатор кодека : A_AC3
Продолжительность : 1 ч. 14 м.
Вид битрейта : Постоянный
Битрейт : 192 Кбит/сек
Каналы : 2 канала
Расположение каналов : Front: L R
Частота : 48,0 КГц
Битовая глубина : 16 бит
Метод сжатия : С потерями
Размер потока : 103 Мбайт (1%)
Заголовок : MVO - TB3
Язык : Russian
Default : Нет
Forced : Нет
Аудио #3
Идентификатор : 4
Формат : DTS
Формат/Информация : Digital Theater Systems
Профиль формата : MA / Core
Режим : 16
Параметр Endianness формата : Big
Идентификатор кодека : A_DTS
Продолжительность : 1 ч. 14 м.
Вид битрейта : Переменный
Битрейт : Неизвестно / 1509 Кбит/сек
Каналы : 6 каналов
Расположение каналов : Front: L C R, Side: L R, LFE
Частота : 48,0 КГц
Битовая глубина : 24 бит
Метод сжатия : Без потерь / Lossy
Заголовок : ENG
Язык : English
Default : Нет
Forced : Нет
Текст
Идентификатор : 5
Формат : UTF-8
Идентификатор кодека : S_TEXT/UTF8
Идентификатор кодека/Информация : UTF-8 Plain Text
Заголовок : Eng Sub - SDH
Язык : English
Default : Нет
Forced : Нет
Other forum [Profile] [PM]

Dracula

Longevity: 7 years 1 month

Posts: 11405

Торрент-статистика

Post 05-Jul-2014 08:12 (after 8 hours)

Топик был перенесен из форума Мультфильмы (HD) в форум Мультфильмы


Геннадич
 
Display posts from previous:    
Reply to topic

The time now is: Today 13:46

All times are GMT + 3 Hours



You cannot post new topics in this forum
You cannot reply to topics in this forum
You cannot edit your posts in this forum
You cannot delete your posts in this forum
You cannot vote in polls in this forum
You cannot attach files in this forum
You cannot download files in this forum