Today is a free download without charge Download

Соседи по разводу (Михаил Херсонский) [2013, Россия, мелодрама, HDTVRip 720p]

Reply to topic
 
Author
Message

Omen ®

Longevity: 8 years 10 months

Posts: 181086

Торрент-статистика

Post 04-Jul-2014 17:31

[Quote]

Соседи по разводу
Выпущено: Россия, кинокомпания «УПС»
Жанр: мелодрама
Год выпуска: 2013
Продолжительность: 01:29:26
Субтитры: нет
Режиссер: Михаил Херсонский
В ролях: Анна Ардова, Леонид Громов, Даниил Дорошенко, Кристина Киселёва, Виталина Библив, Алексей Смолка, Любовь Тимошевская
Описание: Рита и Сергей - бывшие супруги. Живя в одной квартире, оба лелеют одну мечту: поскорее разменять ее и разъехаться. Конфликт разрастается. Дочь Катя в этой партизанской войне занимает позицию наблюдателя, надеясь на то, что родители, как взрослые, разумные люди, разберутся сами. Муж Кати Славик по воле случая вынужден поселиться у враждующих супругов. Перед Ритой и Сергеем стоит трудная задача: не поддаваться амбициям и показать родственнику, что у его жены, несмотря на некоторые сложности, родители - абсолютно миролюбивые люди. Но сам Славик оказывается весьма оригинальным соседом.

Автор рипа / записи: fanatus
Исходник: Запись с телеканала РОССИЯ HD
Качество: HDTVRip 720p
Формат: MKV
Видео кодек: H.264
Аудио кодек: AC3
Видео: MPEG-4 AVC, 4790 kbps , 1280x720 (16:9), 25.000 fps, 0.208 bit/pixel
Аудио: AC3, 2 ch, 48 kHz, 192 kbps

MediaInfo

General
Unique ID : 190321936698576671343172598713633032158 (0x8F2EABF4477F356ABDFC4894332547DE)
Complete name : E:\Sosedi_po_razvodu.2013.x264.HDTVRip.720p.fanatus.mkv
Format : Matroska
Format version : Version 2
File size : 3.11 GiB
Duration : 1h 29mn
Overall bit rate : 4 983 Kbps
Movie name : Sosedi po razvodu (2013) - fanatus
Encoded date : UTC 2014-07-04 08:44:55
Writing application : mkvmerge v3.4.0 ('Rapunzel') сборка от May 15 2010 09:38:20
Writing library : libebml v0.8.0 + libmatroska v0.9.0
Video
ID : 1
Format : AVC
Format/Info : Advanced Video Codec
Format profile : [email protected]
Format settings, CABAC : Yes
Format settings, ReFrames : 9 frames
Codec ID : V_MPEG4/ISO/AVC
Duration : 1h 29mn
Bit rate : 4 790 Kbps
Width : 1 280 pixels
Height : 720 pixels
Display aspect ratio : 16:9
Frame rate : 25.000 fps
Color space : YUV
Chroma subsampling : 4:2:0
Bit depth : 8 bits
Scan type : Progressive
Bits/(Pixel*Frame) : 0.208
Stream size : 2.93 GiB (94%)
Title : Sosedi po razvodu (2013) HDTVRip_720p
Writing library : x264 core 142 r2431 ac76440
Encoding settings : cabac=1 / ref=9 / deblock=1:-3:-3 / analyse=0x3:0x113 / me=umh / subme=11 / psy=1 / psy_rd=1.00:0.10 / mixed_ref=1 / me_range=48 / chroma_me=1 / trellis=2 / 8x8dct=1 / cqm=0 / deadzone=21,11 / fast_pskip=0 / chroma_qp_offset=-3 / threads=16 / lookahead_threads=4 / sliced_threads=0 / nr=0 / decimate=0 / interlaced=0 / bluray_compat=0 / constrained_intra=0 / bframes=10 / b_pyramid=2 / b_adapt=2 / b_bias=0 / direct=3 / weightb=1 / open_gop=0 / weightp=2 / keyint=250 / keyint_min=25 / scenecut=40 / intra_refresh=0 / rc=2pass / mbtree=0 / bitrate=4790 / ratetol=1.0 / qcomp=0.65 / qpmin=0 / qpmax=69 / qpstep=4 / cplxblur=20.0 / qblur=0.5 / ip_ratio=1.40 / pb_ratio=1.30 / aq=1:0.90
Language : Russian
Default : Yes
Forced : No
Audio
ID : 2
Format : AC-3
Format/Info : Audio Coding 3
Mode extension : CM (complete main)
Format settings, Endianness : Big
Codec ID : A_AC3
Duration : 1h 29mn
Bit rate mode : Constant
Bit rate : 192 Kbps
Channel(s) : 2 channels
Channel positions : Front: L R
Sampling rate : 48.0 KHz
Bit depth : 16 bits
Compression mode : Lossy
Stream size : 123 MiB (4%)
Language : Russian
Default : Yes
Forced : No

Скриншот c названием фильма

Скриншоты

Other forum [Profile] [PM]
Display posts from previous:    
Reply to topic

The time now is: Today 16:07

All times are GMT + 3 Hours



You cannot post new topics in this forum
You cannot reply to topics in this forum
You cannot edit your posts in this forum
You cannot delete your posts in this forum
You cannot vote in polls in this forum
You cannot attach files in this forum
You cannot download files in this forum