Today is a free download without charge Download

Агент Г.С. (Владимир Пекарь) [1966, мультфильм для взрослых, SATRip]

Reply to topic
 
Author
Message

Omen ®

Longevity: 8 years 11 months

Posts: 181086

Торрент-статистика

Post 03-Jul-2014 20:56

[Quote]

Агент Г.С.
Страна: СССР
Производство: Союзмультфильм
Жанр: мультфильм для взрослых
Продолжительность: 00:08:44
Год выпуска: 1966
Русские субтитры: нет
Режиссёр: Владимир Пекарь
Описание: Заказной фильм, рекламирующий ГОССТРАХ в форме комической истории.
Кинопоиск
Качество: SATRip
Формат: AVI
Видео: 720x544 (1.32:1), 25 fps, XviD MPEG-4 ~2000 kbps avg, 0.20 bit/pixel
Аудио: 44.1 kHz, MPEG Layer 3, 1 ch, ~96.00 kbps avg
Субтитры: Отсутствуют

Подробные технические данные

GeneralComplete name : E:\1\Агент Г.С. 1966.aviFormat : AVIFormat/Info : Audio Video InterleaveFile size : 132 MiBDuration : 8mn 44sOverall bit rate : 2 105 KbpsWriting application : VirtualDubMod 1.5.10.3 | www.virtualdub-fr.org || (build 2550/release)Writing library : VirtualDubMod build 2550/release
VideoID : 0Format : MPEG-4 VisualFormat profile : Advanced [email protected] settings, BVOP : 2Format settings, QPel : NoFormat settings, GMC : No warppointsFormat settings, Matrix : Default (H.263)Codec ID : XVIDCodec ID/Hint : XviDDuration : 8mn 44sBit rate : 2 000 KbpsWidth : 720 pixelsHeight : 544 pixelsDisplay aspect ratio : 4:3Frame rate : 25.000 fpsColor space : YUVChroma subsampling : 4:2:0Bit depth : 8 bitsScan type : ProgressiveCompression mode : LossyBits/(Pixel*Frame) : 0.204Stream size : 125 MiB (95%)Writing library : XviD 1.2.1 (UTC 2008-12-04)
AudioID : 1Format : MPEG AudioFormat version : Version 1Format profile : Layer 3Codec ID : 55Codec ID/Hint : MP3Duration : 8mn 44sBit rate mode : ConstantBit rate : 96.0 KbpsChannel count : 1 channelSampling rate : 44.1 KHzCompression mode : LossyStream size : 6.00 MiB (5%)Alignment : Split accross interleavesInterleave, duration : 40 ms (1.00 video frame)Interleave, preload duration : 500 ms

Скриншоты

Other forum [Profile] [PM]
Similar theme
Forum Topic Author Torrent Replies Last Post
./templates/default/images/folder_dl.gif Фильмы 2011-2020 Двойной агент / The Double (Майкл Брандт) [2011 г., триллер, драма, криминал, детектив, HDRip] sassad
1 | 0

0 | 967

12

2012-01-16 16:25
sassad Latest
Display posts from previous:    
Reply to topic

The time now is: Today 06:02

All times are GMT + 3 Hours



You cannot post new topics in this forum
You cannot reply to topics in this forum
You cannot edit your posts in this forum
You cannot delete your posts in this forum
You cannot vote in polls in this forum
You cannot attach files in this forum
You cannot download files in this forum