Today is a free download without charge Download

Снежная королева (Владлен Барбэ, Максим Свешников) [2012 г., мультфильм, фэнтези, приключения, семейный, BDRip-AVC]

Reply to topic
 
Author
Message

Omen ®

Longevity: 7 years 11 months

Posts: 181087

Торрент-статистика

Post 03-Jul-2014 14:00

[Quote]

-- Снежная королева--Год выпуска: 2012Страна: РоссияЖанр: мультфильм, комедия, приключения, семейный, вестерн-Продолжительность: 01:17:21Субтитры: нет--Режиссер:Владлен Барбэ, Максим Свешников-Роли озвучивали:Иван Охлобыстин, Нюша Шурочкина, Анна Ардова, Рамиля Искандер, Дмитрий Нагиев, Лиза Арзамасова, Галина Тюнина, Юрий Стоянов, Людмила Артемьева, Михаил Тихонов-Описание:
В стремлении сотворить Новый мир — холодный и практичный, где четкость линий призвана заменить эмоции, а северный ветер должен остудить людские души, Снежная Королева избавляется от всех представителей творческих профессий. Маленькой и смелой Герде, отправившейся в опасное путешествие, чтобы спасти своего брата Кая, предстоит столкнуться с этим холодным миром Снежной Королевы. Преодолевая все сложности и преграды на пути к своей цели, Герда не только обретает семью, но и веру в себя, находит поддержку новых друзей.
--Дополнительная информация:-
Сэмпл Рип НЕ совместим с бытовыми DVD-проигрывателями.--Качество видео: BDRip-AVC (Исходник: Blu-ray disc 1080p )
Формат видео: MKV
Видео: AVC (x264), 1152x648 (16:9), 23.976 fps, ~3 593kbps avg, 0.201 bit/pixel
Аудио: 48 kHz, AC3 Dolby Digital, 6 ch - 3/2 (L,C,R,l,r) + LFE ch, 448 kbps (Dub)
Главы: есть-

MediaInfo/log

log

x264 [info]: frame I:864 Avg QP:14.76 size:146348
x264 [info]: frame P:32739 Avg QP:19.28 size: 32535
x264 [info]: frame B:77803 Avg QP:20.32 size: 11480
x264 [info]: consecutive B-frames: 7.1% 8.1% 15.8% 26.7% 12.4% 24.4% 1.6% 0.6% 0.3% 0.2% 0.1% 0.1% 0.1% 0.1% 0.1% 0.1% 2.4%
x264 [info]: mb I I16..4: 4.8% 63.7% 31.5%
x264 [info]: mb P I16..4: 1.3% 14.3% 2.2% P16..4: 23.4% 24.4% 11.4% 2.6% 0.4% skip:19.9%
x264 [info]: mb B I16..4: 0.4% 3.1% 0.4% B16..8: 24.9% 17.1% 3.7% direct: 4.7% skip:45.9% L0:37.7% L1:44.4% BI:17.9%
x264 [info]: 8x8 transform intra:78.9% inter:53.6%
x264 [info]: direct mvs spatial:92.3% temporal:7.7%
x264 [info]: coded y,uvDC,uvAC intra: 81.9% 83.4% 60.2% inter: 20.2% 23.2% 12.6%
x264 [info]: i16 v,h,dc,p: 12% 22% 4% 61%
x264 [info]: i8 v,h,dc,ddl,ddr,vr,hd,vl,hu: 11% 11% 7% 9% 11% 10% 13% 12% 17%
x264 [info]: i4 v,h,dc,ddl,ddr,vr,hd,vl,hu: 13% 12% 6% 7% 13% 12% 13% 10% 14%
x264 [info]: i8c dc,h,v,p: 32% 28% 19% 21%
x264 [info]: Weighted P-Frames: Y:2.7% UV:2.1%
x264 [info]: ref P L0: 60.3% 12.7% 10.9% 4.3% 2.8% 2.4% 1.7% 1.2% 0.9% 0.9% 0.8% 0.8% 0.2% 0.0%
x264 [info]: ref B L0: 81.3% 8.1% 3.9% 1.8% 1.4% 1.0% 0.9% 0.6% 0.5% 0.3% 0.2%
x264 [info]: ref B L1: 93.1% 6.9%
x264 [info]: kb/s:3592.99
General
Unique ID : 176392008307414559318538117318399136984 (0x84B3DD758DE1EBE9B72E900B3E4294D8)
Complete name : \Snezchnaya_koroleva_(2012).BDRip-AVC.ac3_[All.Films][RG].mkv
Format : Matroska
Format version : Version 4 / Version 2
File size : 2.18 GiB
Duration : 1h 17mn
Overall bit rate : 4 035 Kbps
Movie name : Снежная королева (2012) BDRip-AVC | | [/*spam*/][All.Films][RG]
Encoded date : UTC 2014-07-03 08:46:12
Writing application : mkvmerge v6.1.0 ('Old Devil') built on Mar 4 2013 09:10:42
Writing library : libebml v1.3.0 + libmatroska v1.4.0
Video
ID : 1
Format : AVC
Format/Info : Advanced Video Codec
Format profile : [email protected]
Format settings, CABAC : Yes
Format settings, ReFrames : 12 frames
Codec ID : V_MPEG4/ISO/AVC
Duration : 1h 17mn
Bit rate : 3 594 Kbps
Width : 1 152 pixels
Height : 648 pixels
Display aspect ratio : 16:9
Frame rate mode : Constant
Frame rate : 24.000 fps
Color space : YUV
Chroma subsampling : 4:2:0
Bit depth : 8 bits
Scan type : Progressive
Bits/(Pixel*Frame) : 0.201
Stream size : 1.89 GiB (87%)
Writing library : x264 core 142 r2389kMod 956c8d8
Encoding settings : cabac=1 / ref=12 / deblock=1:-2:-2 / analyse=0x3:0x133 / me=umh / subme=11 / psy=1 / fade_compensate=0.00 / psy_rd=1.05:0.05 / mixed_ref=1 / me_range=48 / chroma_me=1 / trellis=2 / 8x8dct=1 / cqm=0 / deadzone=21,11 / fast_pskip=0 / chroma_qp_offset=-3 / threads=6 / lookahead_threads=1 / sliced_threads=0 / nr=0 / decimate=0 / interlaced=0 / bluray_compat=0 / constrained_intra=0 / fgo=0 / bframes=16 / b_pyramid=2 / b_adapt=2 / b_bias=0 / direct=3 / weightb=1 / open_gop=0 / weightp=2 / keyint=250 / keyint_min=23 / scenecut=40 / intra_refresh=0 / rc_lookahead=60 / rc=2pass / mbtree=0 / bitrate=3594 / ratetol=1.0 / qcomp=0.60 / qpmin=0 / qpmax=69 / qpstep=4 / cplxblur=20.0 / qblur=0.5 / vbv_maxrate=50000 / vbv_bufsize=50000 / nal_hrd=none / filler=0 / ip_ratio=1.40 / pb_ratio=1.30 / aq=2:1.00 / zones=105800,111406,q=30
Default : Yes
Forced : No
Audio
ID : 2
Format : AC-3
Format/Info : Audio Coding 3
Mode extension : CM (complete main)
Format settings, Endianness : Big
Codec ID : A_AC3
Duration : 1h 17mn
Bit rate mode : Constant
Bit rate : 448 Kbps
Channel(s) : 6 channels
Channel positions : Front: L C R, Side: L R, LFE
Sampling rate : 48.0 KHz
Bit depth : 16 bits
Compression mode : Lossy
Stream size : 248 MiB (11%)
Title : Original
Language : Russian
Default : Yes
Forced : No
Menu
00:00:00.000 : en:Chapter 1
00:15:00.000 : en:Chapter 2
00:30:00.000 : en:Chapter 3
00:45:00.000 : en:Chapter 4
01:00:00.000 : en:Chapter 5
01:15:00.000 : en:Chapter 6
Other forum [Profile] [PM]
Display posts from previous:    
Reply to topic

The time now is: Today 05:25

All times are GMT + 3 Hours



You cannot post new topics in this forum
You cannot reply to topics in this forum
You cannot edit your posts in this forum
You cannot delete your posts in this forum
You cannot vote in polls in this forum
You cannot attach files in this forum
You cannot download files in this forum