Today is a free download without charge Download

Вот те на! (Сказка о наморднике и наперстке) / Uz pasaka (Розалия Стиебра / Rozalia Stiebra) [1986, рисованный мультфильм, DVDRip] VO

Reply to topic
 
Author
Message

Omen ®

Longevity: 7 years 11 months

Posts: 181087

Торрент-статистика

Post 03-Jul-2014 08:00

[Quote]

Вот те на! (Сказка о наморднике и наперстке) / Uz pasaka
Страна: СССР
Производство:Телефильм-Рига
Жанр: рисованный мультфильм
Продолжительность: 00:08:33
Год выпуска: 1986
Перевод: Одноголосый закадровый
Русские субтитры: нет
Режиссёр: Розалия Стиебра / Rozalia Stiebra
Описание: Мультипликационный фильм для детей младшего возраста по мотивам сказки И. Зиедониса о приключениях одной маленькой девочки Наперсточки, мечтающей стать колокольчиком.
Кинопоиск
Качество: DVDRip
Формат: AVI
Видео: 720x544 (1.32:1), 25 fps, XviD MPEG-4 ~1988 kbps avg, 0.20 bit/pixel
Аудио: 44.1 kHz, MPEG Layer 3, 2 ch, ~128.00 kbps avg
Субтитры: Отсутствуют

Подробные технические данные

GeneralComplete name : E:\1\Вот те на! 1986.aviFormat : AVIFormat/Info : Audio Video InterleaveFile size : 130 MiBDuration : 8mn 33sOverall bit rate : 2 125 KbpsWriting application : VirtualDubMod 1.5.10.2 (build 2540/release)Writing library : VirtualDubMod build 2540/release
VideoID : 0Format : MPEG-4 VisualFormat profile : Advanced [email protected] settings, BVOP : 2Format settings, QPel : NoFormat settings, GMC : No warppointsFormat settings, Matrix : Default (H.263)Codec ID : XVIDCodec ID/Hint : XviDDuration : 8mn 33sBit rate : 1 988 KbpsWidth : 720 pixelsHeight : 544 pixelsDisplay aspect ratio : 4:3Frame rate : 25.000 fpsColor space : YUVChroma subsampling : 4:2:0Bit depth : 8 bitsScan type : ProgressiveCompression mode : LossyBits/(Pixel*Frame) : 0.203Stream size : 122 MiB (94%)Writing library : XviD 1.2.1 (UTC 2008-12-04)
AudioID : 1Format : MPEG AudioFormat version : Version 1Format profile : Layer 3Mode : Joint stereoMode extension : MS StereoCodec ID : 55Codec ID/Hint : MP3Duration : 8mn 33sBit rate mode : ConstantBit rate : 128 KbpsChannel count : 2 channelsSampling rate : 44.1 KHzCompression mode : LossyStream size : 7.83 MiB (6%)Alignment : Split accross interleavesInterleave, duration : 40 ms (1.00 video frame)Interleave, preload duration : 500 ms

Скриншоты

Other forum [Profile] [PM]
Display posts from previous:    
Reply to topic

The time now is: Today 04:56

All times are GMT + 3 Hours



You cannot post new topics in this forum
You cannot reply to topics in this forum
You cannot edit your posts in this forum
You cannot delete your posts in this forum
You cannot vote in polls in this forum
You cannot attach files in this forum
You cannot download files in this forum