Today is a free download without charge Download

Как Гринч украл рождество! / How the Grinch Stole Christmas! (Чак Джонс / Chuck Jones, Бен Уошем / Ben Washam) [1966, фэнтези, комедия, мюзикл, семейный, мультфильм, короткометражка, BDRemux 1080p] 2хVO + ENG + SUB (rus, eng)

Reply to topic
 
Author
Message

Omen ®

Longevity: 8 years

Posts: 181087

Торрент-статистика

Post 02-Jul-2014 14:49

[Quote]

Как Гринч украл рождество!
How the Grinch Stole Christmas!
Год выпуска: 1966
Страна: США
Жанр: фэнтези, комедия, мюзикл, семейный, мультфильм, короткометражка
Продолжительность: 00:25:45
Перевод:
Одноголосый закадровый - Яна Волкова (behaviour)
Одноголосый закадровый - Игорь Степанов (ELVIS10)
русские субтитры: есть - Narцissa-Режиссёр: Чак Джонс : Chuck Jones, Бен Уошем : Ben Washam-Роли озвучивали: Борис Карлофф, Джун Форэй, Турл Рейвенскрофт-Описание: Гринч живет на вершине холма над городком Ктоград со своим псом Максом. Каждый год во время Рождества ненависть Гринча к счастливым жителям Ктограда росла все больше и больше. Они дарили друг другу подарки, веселились на праздничных обедах и пели песни в городском парке, даже не подозревая о копящейся обиде Гринча. Однажды Гринч решил сорвать Рождество. Переодевшись в Санта Клауса, наскоро снарядившись и заставив свою собаку тащить его на санях, он пробрался в дома жителей городка и украл их подарки, еду и украшения…- -Качество: BDRemux 1080p
Формат: MKV
Видео кодек: VC-1
Аудио кодек: AC3
Видео: 1980x1080 , 23,976 fps, ~21,3 Мbps avg, 0.429 bit/pixel
Аудио #1: [RUS] 48 kHz, AC3 Dolby Digital, 2/0 (L,R) ch, ~192 kbps avg - VO
Аудио #2: [RUS] 48 kHz, AC3 Dolby Digital, 2/0 (L,R) ch, ~192 kbps avg - VO
Аудио #3: [ENG] 48 kHz, AC3 Dolby Digital, 2/0 (L,R) ch, ~192 kbps avg
Аудио #4: [ENG] 48 kHz, AC3 Dolby Digital, 2/0 (L,R) ch, ~192 kbps avg - coment
субтитры: русские (full) - Narцissa, английские (SDH)
навигация по главам: 17 глав

MediaInfo

Общее
Уникальный идентификатор : 216180249540912146942135755574181878314 (0xA2A2CD357FFE16E9A3CDE14BD09BDA2A)
Полное имя : D:\Im\Как Гринч украл рождество!\How the Grinch Stole Christmas!1966.BDRemux 1080p.mkv
Формат : Matroska
Версия формата : Version 4 / Version 2
Размер файла : 4,05 Гбайт
Продолжительность : 25 м.
Общий поток : 22,5 Мбит/сек
Название фильма : How the Grinch Stole Christmas!1966.BDRemux 1080p -Azureus-
Дата кодирования : UTC 2014-07-02 10:44:23
Программа кодирования : mkvmerge v7.0.0 ('Where We Going') 32bit built on Jun 9 2014 15:08:34
Библиотека кодирования : libebml v1.3.0 + libmatroska v1.4.1
DURATION : 00:23:26.864000000
NUMBER_OF_FRAMES : 188
NUMBER_OF_BYTES : 9592
_STATISTICS_WRITING_APP : mkvmerge v7.0.0 ('Where We Going') 32bit built on Jun 9 2014 15:08:34
_STATISTICS_WRITING_DATE_UTC : 2014-07-02 10:44:23
_STATISTICS_TAGS : BPS DURATION NUMBER_OF_FRAMES NUMBER_OF_BYTES
Видео
Идентификатор : 1
Формат : VC-1
Профиль формата : [email protected]
Идентификатор кодека : V_MS/VFW/FOURCC / WVC1
Идентификатор кодека/Подсказка : Microsoft
Продолжительность : 25 м.
Битрейт : 21,3 Мбит/сек
Ширина : 1920 пикселей
Высота : 1080 пикселей
Соотношение сторон : 16:9
Режим частоты кадров : Постоянный
Частота кадров : 23,976 кадра/сек
Цветовое пространство : YUV
Субдискретизация насыщенности : 4:2:0
Битовая глубина : 8 бит
Тип развёртки : Прогрессивная
Метод сжатия : С потерями
Бит/(Пиксели*Кадры) : 0.429
Размер потока : 3,83 Гбайт (95%)
Язык : English
Default : Да
Forced : Нет
Аудио #1
Идентификатор : 2
Формат : AC-3
Формат/Информация : Audio Coding 3
Расширение режима : CM (complete main)
Параметр Endianness формата : Big
Идентификатор кодека : A_AC3
Продолжительность : 25 м.
Вид битрейта : Постоянный
Битрейт : 192 Кбит/сек
Каналы : 2 канала
Расположение каналов : Front: L R
Частота : 48,0 КГц
Битовая глубина : 16 бит
Метод сжатия : С потерями
Размер потока : 35,4 Мбайт (1%)
Заголовок : VO - Яна Волкова (behaviour)
Язык : Russian
Default : Да
Forced : Нет
Аудио #2
Идентификатор : 3
Формат : AC-3
Формат/Информация : Audio Coding 3
Расширение режима : CM (complete main)
Параметр Endianness формата : Big
Идентификатор кодека : A_AC3
Продолжительность : 25 м.
Вид битрейта : Постоянный
Битрейт : 192 Кбит/сек
Каналы : 2 канала
Расположение каналов : Front: L R
Частота : 48,0 КГц
Битовая глубина : 16 бит
Метод сжатия : С потерями
Размер потока : 35,4 Мбайт (1%)
Заголовок : VO - Игорь Степанов (ELVIS10)
Язык : Russian
Default : Нет
Forced : Нет
Аудио #3
Идентификатор : 4
Формат : AC-3
Формат/Информация : Audio Coding 3
Профиль формата : Dolby Digital
Расширение режима : CM (complete main)
Параметр Endianness формата : Big
Идентификатор кодека : A_AC3
Продолжительность : 25 м.
Вид битрейта : Постоянный
Битрейт : 192 Кбит/сек
Каналы : 2 канала
Расположение каналов : Front: L R
Частота : 48,0 КГц
Битовая глубина : 16 бит
Метод сжатия : С потерями
Размер потока : 35,4 Мбайт (1%)
Заголовок : ENG
Язык : English
Default : Нет
Forced : Нет
Аудио #4
Идентификатор : 5
Формат : AC-3
Формат/Информация : Audio Coding 3
Расширение режима : CM (complete main)
Параметр Endianness формата : Big
Идентификатор кодека : A_AC3
Продолжительность : 25 м.
Вид битрейта : Постоянный
Битрейт : 192 Кбит/сек
Каналы : 2 канала
Расположение каналов : Front: L R
Частота : 48,0 КГц
Битовая глубина : 16 бит
Метод сжатия : С потерями
Размер потока : 35,4 Мбайт (1%)
Заголовок : ENG - coment
Язык : English
Default : Нет
Forced : Нет
Текст #1
Идентификатор : 6
Формат : UTF-8
Идентификатор кодека : S_TEXT/UTF8
Идентификатор кодека/Информация : UTF-8 Plain Text
Заголовок : Rus Sub - Narцissa
Язык : Russian
Default : Нет
Forced : Нет
Текст #2
Идентификатор : 7
Формат : UTF-8
Идентификатор кодека : S_TEXT/UTF8
Идентификатор кодека/Информация : UTF-8 Plain Text
Заголовок : Eng Sub - SDH
Язык : English
Default : Нет
Forced : Нет
Меню
00:00:00.000 : en:00:00:00.000
00:00:48.757 : en:00:00:48.757
00:01:27.212 : en:00:01:27.212
00:02:03.332 : en:00:02:03.332
00:03:19.408 : en:00:03:19.408
00:05:14.731 : en:00:05:14.731
00:05:59.776 : en:00:05:59.776
00:07:10.513 : en:00:07:10.513
00:08:14.119 : en:00:08:14.119
00:09:26.399 : en:00:09:26.399
00:10:43.017 : en:00:10:43.017
00:11:59.636 : en:00:11:59.636
00:14:40.213 : en:00:14:40.213
00:18:50.087 : en:00:18:50.087
00:19:55.319 : en:00:19:55.319
00:21:17.568 : en:00:21:17.568
00:25:12.928 : en:00:25:12.928
Other forum [Profile] [PM]

Dracula

Longevity: 7 years 1 month

Posts: 11392

Торрент-статистика

Post 02-Jul-2014 17:23 (after 2 hours 34 minutes)

Топик был перенесен из форума Мультфильмы (HD) в форум Мультфильмы


Геннадич
 
Display posts from previous:    
Reply to topic

The time now is: Today 07:24

All times are GMT + 3 Hours



You cannot post new topics in this forum
You cannot reply to topics in this forum
You cannot edit your posts in this forum
You cannot delete your posts in this forum
You cannot vote in polls in this forum
You cannot attach files in this forum
You cannot download files in this forum