Today is a free download without charge Download

(OST) Мастер Муси / Mushishi Zoku Shou (Mushinone Zoku) - 2014 г., FLAC (image+.cue), lossless

Reply to topic
 
Author
Message

Omen ®

Longevity: 9 years 1 month

Posts: 181086

Торрент-статистика

Post 01-Jul-2014 14:00

[Quote]

Мастер Муси / Mushishi Zoku Shou
Название альбома: Mushinone Zoku
Композитор: Toshio Masuda
Год выпуска: 2014 г.
Страна: Япония
Аудио кодек: FLAC (*.flac)
Тип рипа: image+.cue
Битрейт аудио: lossless
Продолжительность: 57 минут
Наличие сканов в содержимом раздачи: да
Треклист:
01. Hihamu Kage
02. Denshou
03. Hinata
04. Kage
05. Antan
06. Kewai(Kai).Sei
07. Kewai(Kai).Dou
08. [Mushishi.Zokushou]
09. Shinen(Kai)
10. Mushi Damari
11. Anutsu
12. Tansku
13. Utage
14. Michisugara
15. Koharu Biyori
16. Setsuna
17. Shizukumichi
18. Shundou
19. Omoi
20. Kaikon
21. Nukumori
22. Anshi
23. Iyaou
24. Yozakura
25. Mujou
26. Tayuta
27. Mishi(Kai)

Лог создания рипа

Exact Audio Copy V1.0 beta 3 from 29. August 2011
EAC extraction logfile from 1. July 2014, 11:11
Toshio Masuda / Mushishi Soundtrack 'Mushinone Zoku'
Used drive : Optiarc DVD RW AD-7561S Adapter: 0 ID: 0
Read mode : SecureUtilize accurate stream : YesDefeat audio cache : NoMake use of C2 pointers : Yes
Combined read/write offset correction : 0Overread into Lead-In and Lead-Out : NoFill up missing offset samples with silence : YesDelete leading and trailing silent blocks : NoNull samples used in CRC calculations : YesUsed interface : Native Win32 interface for Win NT & 2000
Used output format : Internal WAV RoutinesSample format : 44.100 Hz; 16 Bit; Stereo
TOC of the extracted CD
Track | Start | Length | Start sector | End sector --------------------------------------------------------- 1 | 0:00.00 | 2:41.06 | 0 | 12080 2 | 2:41.06 | 2:23.08 | 12081 | 22813 3 | 5:04.14 | 2:17.45 | 22814 | 33133 4 | 7:21.59 | 2:53.15 | 33134 | 46123 5 | 10:14.74 | 2:04.33 | 46124 | 55456 6 | 12:19.32 | 2:29.25 | 55457 | 66656 7 | 14:48.57 | 1:27.21 | 66657 | 73202 8 | 16:16.03 | 2:13.00 | 73203 | 83177 9 | 18:29.03 | 2:07.48 | 83178 | 92750 10 | 20:36.51 | 2:58.43 | 92751 | 106143 11 | 23:35.19 | 2:41.40 | 106144 | 118258 12 | 26:16.59 | 1:37.01 | 118259 | 125534 13 | 27:53.60 | 2:08.71 | 125535 | 135205 14 | 30:02.56 | 1:15.69 | 135206 | 140899 15 | 31:18.50 | 1:45.59 | 140900 | 148833 16 | 33:04.34 | 1:54.41 | 148834 | 157424 17 | 34:59.00 | 2:52.61 | 157425 | 170385 18 | 37:51.61 | 1:14.05 | 170386 | 175940 19 | 39:05.66 | 1:51.14 | 175941 | 184279 20 | 40:57.05 | 1:59.39 | 184280 | 193243 21 | 42:56.44 | 2:06.36 | 193244 | 202729 22 | 45:03.05 | 1:35.23 | 202730 | 209877 23 | 46:38.28 | 2:16.59 | 209878 | 220136 24 | 48:55.12 | 1:56.61 | 220137 | 228897 25 | 50:51.73 | 1:59.00 | 228898 | 237822 26 | 52:50.73 | 2:26.17 | 237823 | 248789 27 | 55:17.15 | 1:39.00 | 248790 | 256214
Range status and errors
Selected range
Filename C:\Users\Алексей\Music\Toshio Masuda - Mushishi Soundtrack 'Mushinone Zoku'.wav
Peak level 99.2 % Extraction speed 12.6 X Range quality 99.9 % Copy CRC 29CBE7A7 Copy OK
No errors occurred
End of status report
Other forum [Profile] [PM]
Display posts from previous:    
Reply to topic

The time now is: Today 07:18

All times are GMT + 3 Hours



You cannot post new topics in this forum
You cannot reply to topics in this forum
You cannot edit your posts in this forum
You cannot delete your posts in this forum
You cannot vote in polls in this forum
You cannot attach files in this forum
You cannot download files in this forum