Today is a free download without charge Download

Псевдоним Албанец / Серии: 1-8 из 8 (Рауф Кубаев) [2006 г., Боевик, DVD9] R5 "Русское счастье Энтертеймент / Классiк"

Reply to topic
 
Author
Message

Omen ®

Longevity: 9 years

Posts: 181086

Торрент-статистика

Post 02-Jan-2012 20:55

[Quote]

Псевдоним Албанец Год выпуска: 2006
Страна: Россия
Жанр: Боевик
Продолжительность: ~ 368 минут
Русские субтитры: нет-Режиссер: Рауф Кубаев-В ролях: Александр Дедюшко, Светлана Ходченкова, Владимир Стеклов, Александр Песков, Вадим Андреев, Габриэлла Мариани, Татьяна Лютаева, Марк Рудинштейн, Виталий Альшанский, Владимир Малюгин-Описание: «Спец» по ликвидациям, работавший на секретные службы в постсоветскую эпоху, решает выйти в отставку. Однако бывшие сослуживцы, взявшиеся за полукриминальный бизнес, не оставляют его в покое, ведь для них его имя служит своего рода, «знаком качества».
И вот реалии жизни складываются не в пользу главного героя - теперь он сам становится мишенью. Албанец понимает, что желание - вернуться к мирной жизни - будет не так просто осуществить…

Доп. информация:
Анимированное; Рекламный ролик.
Киностудия: Телекомпания НТВ. Дистрибьютор: Русское счастье Энтертеймент / Классiк.
Ссылка по фильму:
[КиноПоиск.ru]
Коврик + блин (300 dpi) – прилагаются в папке! Региональная защита снята!
Качество: DVD9 Сэмпл
Формат: DVD Video
Видео кодек: MPEG2
Аудио кодек: AC3
Видео: PAL 4:3 (720x576)@(768x576) VBR
Аудио: Русский DD 2.0 (192Kbps)

DVDInfo

Код:
Title: Psevdonim Albanets_DVD9
Size: 7.58 Gb ( 7 945 922,00 KBytes ) - DVD-9
Enabled regions: 1, 2, 3, 4, 5, 6, 7, 8
VTS_01 :
Play Length: 04:05:00
Video: PAL 4:3 (720x576) VBR
Audio:
Russian, AC3, 2/0 (L,R) ch, 192 kbps, Delay 0 mSec
VTS_02 :
Play Length: 00:00:46+00:00:00+{00:00:00}+00:00:46+{00:00:00}+{00:00:00}+00:00:04+{00:00:00}+{00:00:00}
Video: PAL 4:3 (720x576) VBR
Subtitles:
English
* Menus Information *
VIDEO_TS Menu
Video:
PAL 4:3 (720x576) VBR
Audio:
Not specified (Dolby AC3, 2 ch)
Russian Language Unit :
Title Menu
VTS_01 Menu
Video:
PAL 4:3 (720x576) VBR
Audio:
Not specified (Dolby AC3, 2 ch)
Russian Language Unit :
Root Menu
Chapter (PTT) Menu
VTS_02 Menu
Video:
NTSC 4:3 (720x480) VBR
Auto Pan&Scan, Auto Letterboxed
Russian Language Unit :
Root Menu
[/spoiler]
[spoiler="MediaInfo"]
Общее
Полное имя : D:\Torrents.ru\Psevdonim Albanets_DVD9\VIDEO_TS\VIDEO_TS.BUP
Формат : DVD Video
Профиль формата : Menu
Размер файла : 12,0 Кбайт
Режим общего битрейта : Переменный
Видео
Идентификатор : 224 (0xE0)
Формат : MPEG Video
Версия формата : Version 2
Вид битрейта : Переменный
Ширина : 720 пикселей
Высота : 576 пикселей
Соотношение сторон : 4:3
Частота кадров : 25,000 кадров/сек
Стандарт вещания : PAL
Метод сжатия : С потерями
Аудио
Формат : AC-3
Формат/Информация : Audio Coding 3
Каналы : 2 канала
Частота : 48,0 КГц
Метод сжатия : С потерями
Текст
Формат : RLE
Формат/Информация : Run-length encoding
Битовая глубина : 2 бит
Общее
Полное имя : D:\Torrents.ru\Psevdonim Albanets_DVD9\VIDEO_TS\VIDEO_TS.IFO
Формат : DVD Video
Профиль формата : Menu
Размер файла : 12,0 Кбайт
Режим общего битрейта : Переменный
Видео
Идентификатор : 224 (0xE0)
Формат : MPEG Video
Версия формата : Version 2
Вид битрейта : Переменный
Ширина : 720 пикселей
Высота : 576 пикселей
Соотношение сторон : 4:3
Частота кадров : 25,000 кадров/сек
Стандарт вещания : PAL
Метод сжатия : С потерями
Аудио
Формат : AC-3
Формат/Информация : Audio Coding 3
Каналы : 2 канала
Частота : 48,0 КГц
Метод сжатия : С потерями
Текст
Формат : RLE
Формат/Информация : Run-length encoding
Битовая глубина : 2 бит
Общее
Полное имя : D:\Torrents.ru\Psevdonim Albanets_DVD9\VIDEO_TS\VIDEO_TS.VOB
Формат : MPEG-PS
Размер файла : 161 Мбайт
Продолжительность : 1 м. 43 с.
Режим общего битрейта : Переменный
Общий поток : 13,1 Мбит/сек
Видео
Идентификатор : 224 (0xE0)
Формат : MPEG Video
Версия формата : Version 2
Профиль формата : [email protected]
Параметр BVOP формата : Да
Параметр матрицы формата : Выборочная
Продолжительность : 1 м. 43 с.
Вид битрейта : Переменный
Битрейт : 12,6 Мбит/сек
Максимальный битрейт : 8000 Кбит/сек
Ширина : 720 пикселей
Высота : 576 пикселей
Соотношение сторон : 4:3
Частота кадров : 25,000 кадров/сек
Стандарт вещания : PAL
Цветовое пространство : YUV
Субдискретизация насыщенности : 4:2:0
Битовая глубина : 8 бит
Тип развёртки : Чересстрочная
Порядок развёртки : Верхнее поле первое
Метод сжатия : С потерями
Бит/(Пиксели*Кадры) : 1.219
Размер потока : 155 Мбайт (97%)
Аудио
Идентификатор : 189 (0xBD)-128 (0x80)
Формат : AC-3
Формат/Информация : Audio Coding 3
Расширение режима : CM (complete main)
Режим смешивания : DVD-Video
Продолжительность : 1 м. 42 с.
Вид битрейта : Постоянный
Битрейт : 192 Кбит/сек
Каналы : 2 канала
Расположение каналов : Front: L R
Частота : 48,0 КГц
Битовая глубина : 16 бит
Метод сжатия : С потерями
Размер потока : 2,35 Мбайт (1%)
Текст
Идентификатор : 189 (0xBD)-32 (0x20)
Формат : RLE
Формат/Информация : Run-length encoding
Режим смешивания : DVD-Video
Меню
Общее
Полное имя : D:\Torrents.ru\Psevdonim Albanets_DVD9\VIDEO_TS\VTS_01_0.BUP
Формат : DVD Video
Профиль формата : Program
Размер файла : 168 Кбайт
Продолжительность : 4 ч. 5 м.
Режим общего битрейта : Переменный
Общий поток : 93 бит/сек
Видео
Идентификатор : 224 (0xE0)
Формат : MPEG Video
Версия формата : Version 2
Продолжительность : 4 ч. 5 м.
Вид битрейта : Переменный
Ширина : 720 пикселей
Высота : 576 пикселей
Соотношение сторон : 4:3
Частота кадров : 25,000 кадров/сек
Стандарт вещания : PAL
Метод сжатия : С потерями
Аудио
Идентификатор : 128 (0x80)
Формат : AC-3
Формат/Информация : Audio Coding 3
Продолжительность : 4 ч. 5 м.
Каналы : 2 канала
Частота : 48,0 КГц
Метод сжатия : С потерями
Язык : Russian
Меню
Продолжительность : 4 ч. 5 м.
00:00:00.000 : Chapter 1
00:10:18.800 : Chapter 2
00:20:31.200 : Chapter 3
00:34:01.960 : Chapter 4
00:44:16.840 : Chapter 5
00:55:53.320 : Chapter 6
01:07:30.200 : Chapter 7
01:17:55.600 : Chapter 8
01:28:25.880 : Chapter 9
01:37:39.400 : Chapter 10
01:49:15.200 : Chapter 11
02:00:02.800 : Chapter 12
02:13:26.520 : Chapter 13
02:26:33.800 : Chapter 14
02:37:25.360 : Chapter 15
02:46:42.800 : Chapter 16
02:57:46.960 : Chapter 17
03:05:10.640 : Chapter 18
03:18:18.880 : Chapter 19
03:30:27.360 : Chapter 20
03:42:50.000 : Chapter 21
03:54:17.920 : Chapter 22
04:04:34.160 : Chapter 23
04:15:38.480 : Chapter 24
04:27:27.240 : Chapter 25
04:37:55.280 : Chapter 26
04:48:54.200 : Chapter 27
04:58:45.960 : Chapter 28
05:12:30.280 : Chapter 29
05:21:35.560 : Chapter 30
05:35:52.160 : Chapter 31
05:45:19.160 : Chapter 32
List (Audio) : 0
Общее
Полное имя : D:\Torrents.ru\Psevdonim Albanets_DVD9\VIDEO_TS\VTS_01_0.IFO
Формат : DVD Video
Профиль формата : Program
Размер файла : 168 Кбайт
Продолжительность : 4 ч. 5 м.
Режим общего битрейта : Переменный
Общий поток : 93 бит/сек
Видео
Идентификатор : 224 (0xE0)
Формат : MPEG Video
Версия формата : Version 2
Продолжительность : 4 ч. 5 м.
Вид битрейта : Переменный
Ширина : 720 пикселей
Высота : 576 пикселей
Соотношение сторон : 4:3
Частота кадров : 25,000 кадров/сек
Стандарт вещания : PAL
Метод сжатия : С потерями
Аудио
Идентификатор : 128 (0x80)
Формат : AC-3
Формат/Информация : Audio Coding 3
Продолжительность : 4 ч. 5 м.
Каналы : 2 канала
Частота : 48,0 КГц
Метод сжатия : С потерями
Язык : Russian
Меню
Продолжительность : 4 ч. 5 м.
00:00:00.000 : Chapter 1
00:10:18.800 : Chapter 2
00:20:31.200 : Chapter 3
00:34:01.960 : Chapter 4
00:44:16.840 : Chapter 5
00:55:53.320 : Chapter 6
01:07:30.200 : Chapter 7
01:17:55.600 : Chapter 8
01:28:25.880 : Chapter 9
01:37:39.400 : Chapter 10
01:49:15.200 : Chapter 11
02:00:02.800 : Chapter 12
02:13:26.520 : Chapter 13
02:26:33.800 : Chapter 14
02:37:25.360 : Chapter 15
02:46:42.800 : Chapter 16
02:57:46.960 : Chapter 17
03:05:10.640 : Chapter 18
03:18:18.880 : Chapter 19
03:30:27.360 : Chapter 20
03:42:50.000 : Chapter 21
03:54:17.920 : Chapter 22
04:04:34.160 : Chapter 23
04:15:38.480 : Chapter 24
04:27:27.240 : Chapter 25
04:37:55.280 : Chapter 26
04:48:54.200 : Chapter 27
04:58:45.960 : Chapter 28
05:12:30.280 : Chapter 29
05:21:35.560 : Chapter 30
05:35:52.160 : Chapter 31
05:45:19.160 : Chapter 32
List (Audio) : 0
Общее
Полное имя : D:\Torrents.ru\Psevdonim Albanets_DVD9\VIDEO_TS\VTS_01_0.VOB
Формат : MPEG-PS
Размер файла : 9,82 Мбайт
Продолжительность : 39 с.
Режим общего битрейта : Переменный
Общий поток : 2062 Кбит/сек
Видео
Идентификатор : 224 (0xE0)
Формат : MPEG Video
Версия формата : Version 2
Профиль формата : [email protected]
Параметр BVOP формата : Нет
Параметр матрицы формата : Выборочная
Параметр GOP формата : N=1
Продолжительность : 40 мс.
Вид битрейта : Переменный
Битрейт : 1829 Кбит/сек
Максимальный битрейт : 8000 Кбит/сек
Ширина : 720 пикселей
Высота : 576 пикселей
Соотношение сторон : 4:3
Частота кадров : 25,000 кадров/сек
Стандарт вещания : PAL
Цветовое пространство : YUV
Субдискретизация насыщенности : 4:2:0
Битовая глубина : 8 бит
Тип развёртки : Прогрессивная
Порядок развёртки : Верхнее поле первое
Метод сжатия : С потерями
Бит/(Пиксели*Кадры) : 0.176
Размер потока : 8,93 Кбайт (0%)
Основные цвета : BT.470-2 System B, BT.470-2 System G
Характеристики трансфера : BT.470-2 System B, BT.470-2 System G
Коэффициенты матрицы : BT.470-2 System B, BT.470-2 System G
Аудио
Идентификатор : 189 (0xBD)-128 (0x80)
Формат : AC-3
Формат/Информация : Audio Coding 3
Расширение режима : CM (complete main)
Режим смешивания : DVD-Video
Продолжительность : 39 с.
Вид битрейта : Постоянный
Битрейт : 192 Кбит/сек
Каналы : 2 канала
Расположение каналов : Front: L R
Частота : 48,0 КГц
Битовая глубина : 16 бит
Метод сжатия : С потерями
Размер потока : 937 Кбайт (9%)
Текст
Идентификатор : 189 (0xBD)-32 (0x20)
Формат : RLE
Формат/Информация : Run-length encoding
Режим смешивания : DVD-Video
Меню
Общее
Полное имя : D:\Torrents.ru\Psevdonim Albanets_DVD9\VIDEO_TS\VTS_01_1.VOB
Формат : MPEG-PS
Размер файла : 1024 Мбайт
Продолжительность : 3 м. 13 с.
Режим общего битрейта : Переменный
Общий поток : 44,4 Мбит/сек
Видео
Идентификатор : 224 (0xE0)
Формат : MPEG Video
Версия формата : Version 2
Профиль формата : [email protected]
Параметр BVOP формата : Да
Параметр матрицы формата : Выборочная
Продолжительность : 3 м. 13 с.
Вид битрейта : Переменный
Битрейт : 43,3 Мбит/сек
Максимальный битрейт : 8000 Кбит/сек
Ширина : 720 пикселей
Высота : 576 пикселей
Соотношение сторон : 4:3
Частота кадров : 25,000 кадров/сек
Стандарт вещания : PAL
Цветовое пространство : YUV
Субдискретизация насыщенности : 4:2:0
Битовая глубина : 8 бит
Тип развёртки : Чересстрочная
Порядок развёртки : Верхнее поле первое
Метод сжатия : С потерями
Бит/(Пиксели*Кадры) : 4.181
Размер потока : 999 Мбайт (98%)
Аудио
Идентификатор : 189 (0xBD)-128 (0x80)
Формат : AC-3
Формат/Информация : Audio Coding 3
Расширение режима : CM (complete main)
Режим смешивания : DVD-Video
Продолжительность : 3 м. 12 с.
Вид битрейта : Постоянный
Битрейт : 192 Кбит/сек
Каналы : 2 канала
Расположение каналов : Front: L R
Частота : 48,0 КГц
Битовая глубина : 16 бит
Метод сжатия : С потерями
Размер потока : 4,42 Мбайт (0%)
Меню
Общее
Полное имя : D:\Torrents.ru\Psevdonim Albanets_DVD9\VIDEO_TS\VTS_01_2.VOB
Формат : MPEG-PS
Размер файла : 1024 Мбайт
Продолжительность : 3 м. 47 с.
Режим общего битрейта : Переменный
Общий поток : 37,7 Мбит/сек
Видео
Идентификатор : 224 (0xE0)
Формат : MPEG Video
Версия формата : Version 2
Профиль формата : [email protected]
Параметр BVOP формата : Да
Параметр матрицы формата : Выборочная
Параметр GOP формата : M=3, N=15
Продолжительность : 3 м. 47 с.
Вид битрейта : Переменный
Битрейт : 36,8 Мбит/сек
Максимальный битрейт : 8000 Кбит/сек
Ширина : 720 пикселей
Высота : 576 пикселей
Соотношение сторон : 4:3
Частота кадров : 25,000 кадров/сек
Стандарт вещания : PAL
Цветовое пространство : YUV
Субдискретизация насыщенности : 4:2:0
Битовая глубина : 8 бит
Тип развёртки : Чересстрочная
Порядок развёртки : Верхнее поле первое
Метод сжатия : С потерями
Бит/(Пиксели*Кадры) : 3.545
Размер потока : 997 Мбайт (97%)
Аудио
Идентификатор : 189 (0xBD)-128 (0x80)
Формат : AC-3
Формат/Информация : Audio Coding 3
Расширение режима : CM (complete main)
Режим смешивания : DVD-Video
Продолжительность : 3 м. 47 с.
Вид битрейта : Постоянный
Битрейт : 192 Кбит/сек
Каналы : 2 канала
Расположение каналов : Front: L R
Частота : 48,0 КГц
Битовая глубина : 16 бит
Метод сжатия : С потерями
Задержка видео : -720 мс.
Размер потока : 5,22 Мбайт (1%)
Меню
Общее
Полное имя : D:\Torrents.ru\Psevdonim Albanets_DVD9\VIDEO_TS\VTS_01_3.VOB
Формат : MPEG-PS
Размер файла : 1024 Мбайт
Продолжительность : 3 м. 17 с.
Режим общего битрейта : Переменный
Общий поток : 43,5 Мбит/сек
Видео
Идентификатор : 224 (0xE0)
Формат : MPEG Video
Версия формата : Version 2
Профиль формата : [email protected]
Параметр BVOP формата : Да
Параметр матрицы формата : Выборочная
Параметр GOP формата : M=3, N=15
Продолжительность : 3 м. 17 с.
Вид битрейта : Переменный
Битрейт : 42,4 Мбит/сек
Максимальный битрейт : 8000 Кбит/сек
Ширина : 720 пикселей
Высота : 576 пикселей
Соотношение сторон : 4:3
Частота кадров : 25,000 кадров/сек
Стандарт вещания : PAL
Цветовое пространство : YUV
Субдискретизация насыщенности : 4:2:0
Битовая глубина : 8 бит
Тип развёртки : Чересстрочная
Порядок развёртки : Верхнее поле первое
Метод сжатия : С потерями
Бит/(Пиксели*Кадры) : 4.089
Размер потока : 998 Мбайт (98%)
Аудио
Идентификатор : 189 (0xBD)-128 (0x80)
Формат : AC-3
Формат/Информация : Audio Coding 3
Расширение режима : CM (complete main)
Режим смешивания : DVD-Video
Продолжительность : 3 м. 17 с.
Вид битрейта : Постоянный
Битрейт : 192 Кбит/сек
Каналы : 2 канала
Расположение каналов : Front: L R
Частота : 48,0 КГц
Битовая глубина : 16 бит
Метод сжатия : С потерями
Задержка видео : -656 мс.
Размер потока : 4,52 Мбайт (0%)
Меню
Общее
Полное имя : D:\Torrents.ru\Psevdonim Albanets_DVD9\VIDEO_TS\VTS_01_4.VOB
Формат : MPEG-PS
Размер файла : 1024 Мбайт
Продолжительность : 4 м. 23 с.
Режим общего битрейта : Переменный
Общий поток : 32,6 Мбит/сек
Видео
Идентификатор : 224 (0xE0)
Формат : MPEG Video
Версия формата : Version 2
Профиль формата : [email protected]
Параметр BVOP формата : Да
Параметр матрицы формата : Выборочная
Параметр GOP формата : M=3, N=15
Продолжительность : 4 м. 22 с.
Вид битрейта : Переменный
Битрейт : 31,8 Мбит/сек
Максимальный битрейт : 8000 Кбит/сек
Ширина : 720 пикселей
Высота : 576 пикселей
Соотношение сторон : 4:3
Частота кадров : 25,000 кадров/сек
Стандарт вещания : PAL
Цветовое пространство : YUV
Субдискретизация насыщенности : 4:2:0
Битовая глубина : 8 бит
Тип развёртки : Чересстрочная
Порядок развёртки : Верхнее поле первое
Метод сжатия : С потерями
Бит/(Пиксели*Кадры) : 3.066
Размер потока : 996 Мбайт (97%)
Аудио
Идентификатор : 189 (0xBD)-128 (0x80)
Формат : AC-3
Формат/Информация : Audio Coding 3
Расширение режима : CM (complete main)
Режим смешивания : DVD-Video
Продолжительность : 4 м. 23 с.
Вид битрейта : Постоянный
Битрейт : 192 Кбит/сек
Каналы : 2 канала
Расположение каналов : Front: L R
Частота : 48,0 КГц
Битовая глубина : 16 бит
Метод сжатия : С потерями
Задержка видео : -688 мс.
Размер потока : 6,03 Мбайт (1%)
Меню
Общее
Полное имя : D:\Torrents.ru\Psevdonim Albanets_DVD9\VIDEO_TS\VTS_01_5.VOB
Формат : MPEG-PS
Размер файла : 1024 Мбайт
Продолжительность : 4 м. 25 с.
Режим общего битрейта : Переменный
Общий поток : 32,4 Мбит/сек
Видео
Идентификатор : 224 (0xE0)
Формат : MPEG Video
Версия формата : Version 2
Профиль формата : [email protected]
Параметр BVOP формата : Да
Параметр матрицы формата : Выборочная
Параметр GOP формата : M=3, N=15
Продолжительность : 4 м. 25 с.
Вид битрейта : Переменный
Битрейт : 31,5 Мбит/сек
Максимальный битрейт : 8000 Кбит/сек
Ширина : 720 пикселей
Высота : 576 пикселей
Соотношение сторон : 4:3
Частота кадров : 25,000 кадров/сек
Стандарт вещания : PAL
Цветовое пространство : YUV
Субдискретизация насыщенности : 4:2:0
Битовая глубина : 8 бит
Тип развёртки : Чересстрочная
Порядок развёртки : Верхнее поле первое
Метод сжатия : С потерями
Бит/(Пиксели*Кадры) : 3.041
Размер потока : 997 Мбайт (97%)
Аудио
Идентификатор : 189 (0xBD)-128 (0x80)
Формат : AC-3
Формат/Информация : Audio Coding 3
Расширение режима : CM (complete main)
Режим смешивания : DVD-Video
Продолжительность : 4 м. 25 с.
Вид битрейта : Постоянный
Битрейт : 192 Кбит/сек
Каналы : 2 канала
Расположение каналов : Front: L R
Частота : 48,0 КГц
Битовая глубина : 16 бит
Метод сжатия : С потерями
Задержка видео : -592 мс.
Размер потока : 6,08 Мбайт (1%)
Меню
Общее
Полное имя : D:\Torrents.ru\Psevdonim Albanets_DVD9\VIDEO_TS\VTS_01_6.VOB
Формат : MPEG-PS
Размер файла : 1024 Мбайт
Продолжительность : 4 м. 43 с.
Режим общего битрейта : Переменный
Общий поток : 30,4 Мбит/сек
Видео
Идентификатор : 224 (0xE0)
Формат : MPEG Video
Версия формата : Version 2
Профиль формата : [email protected]
Параметр BVOP формата : Да
Параметр матрицы формата : Выборочная
Параметр GOP формата : M=3, N=15
Продолжительность : 4 м. 42 с.
Вид битрейта : Переменный
Битрейт : 29,6 Мбит/сек
Максимальный битрейт : 8000 Кбит/сек
Ширина : 720 пикселей
Высота : 576 пикселей
Соотношение сторон : 4:3
Частота кадров : 25,000 кадров/сек
Стандарт вещания : PAL
Цветовое пространство : YUV
Субдискретизация насыщенности : 4:2:0
Битовая глубина : 8 бит
Тип развёртки : Чересстрочная
Порядок развёртки : Верхнее поле первое
Метод сжатия : С потерями
Бит/(Пиксели*Кадры) : 2.851
Размер потока : 997 Мбайт (97%)
Аудио
Идентификатор : 189 (0xBD)-128 (0x80)
Формат : AC-3
Формат/Информация : Audio Coding 3
Расширение режима : CM (complete main)
Режим смешивания : DVD-Video
Продолжительность : 4 м. 43 с.
Вид битрейта : Постоянный
Битрейт : 192 Кбит/сек
Каналы : 2 канала
Расположение каналов : Front: L R
Частота : 48,0 КГц
Битовая глубина : 16 бит
Метод сжатия : С потерями
Задержка видео : -680 мс.
Размер потока : 6,48 Мбайт (1%)
Меню
Общее
Полное имя : D:\Torrents.ru\Psevdonim Albanets_DVD9\VIDEO_TS\VTS_01_7.VOB
Формат : MPEG-PS
Размер файла : 1024 Мбайт
Продолжительность : 3 м. 0 с.
Режим общего битрейта : Переменный
Общий поток : 47,6 Мбит/сек
Видео
Идентификатор : 224 (0xE0)
Формат : MPEG Video
Версия формата : Version 2
Профиль формата : [email protected]
Параметр BVOP формата : Да
Параметр матрицы формата : Выборочная
Параметр GOP формата : M=3, N=15
Продолжительность : 3 м. 0 с.
Вид битрейта : Переменный
Битрейт : 46,5 Мбит/сек
Максимальный битрейт : 8000 Кбит/сек
Ширина : 720 пикселей
Высота : 576 пикселей
Соотношение сторон : 4:3
Частота кадров : 25,000 кадров/сек
Стандарт вещания : PAL
Цветовое пространство : YUV
Субдискретизация насыщенности : 4:2:0
Битовая глубина : 8 бит
Тип развёртки : Чересстрочная
Порядок развёртки : Верхнее поле первое
Метод сжатия : С потерями
Бит/(Пиксели*Кадры) : 4.482
Размер потока : 997 Мбайт (97%)
Аудио
Идентификатор : 189 (0xBD)-128 (0x80)
Формат : AC-3
Формат/Информация : Audio Coding 3
Расширение режима : CM (complete main)
Режим смешивания : DVD-Video
Продолжительность : 3 м. 0 с.
Вид битрейта : Постоянный
Битрейт : 192 Кбит/сек
Каналы : 2 канала
Расположение каналов : Front: L R
Частота : 48,0 КГц
Битовая глубина : 16 бит
Метод сжатия : С потерями
Задержка видео : -792 мс.
Размер потока : 4,13 Мбайт (0%)
Меню
Общее
Полное имя : D:\Torrents.ru\Psevdonim Albanets_DVD9\VIDEO_TS\VTS_01_8.VOB
Формат : MPEG-PS
Размер файла : 409 Мбайт
Продолжительность : 17 м.
Режим общего битрейта : Переменный
Общий поток : 3235 Кбит/сек
Видео
Идентификатор : 224 (0xE0)
Формат : MPEG Video
Версия формата : Version 2
Профиль формата : [email protected]
Параметр BVOP формата : Да
Параметр матрицы формата : Выборочная
Параметр GOP формата : M=3, N=15
Продолжительность : 17 м.
Вид битрейта : Переменный
Битрейт : 2978 Кбит/сек
Максимальный битрейт : 8000 Кбит/сек
Ширина : 720 пикселей
Высота : 576 пикселей
Соотношение сторон : 4:3
Частота кадров : 25,000 кадров/сек
Стандарт вещания : PAL
Цветовое пространство : YUV
Субдискретизация насыщенности : 4:2:0
Битовая глубина : 8 бит
Тип развёртки : Чересстрочная
Порядок развёртки : Верхнее поле первое
Метод сжатия : С потерями
Бит/(Пиксели*Кадры) : 0.287
Размер потока : 376 Мбайт (92%)
Аудио
Идентификатор : 189 (0xBD)-128 (0x80)
Формат : AC-3
Формат/Информация : Audio Coding 3
Расширение режима : CM (complete main)
Режим смешивания : DVD-Video
Продолжительность : 17 м.
Вид битрейта : Постоянный
Битрейт : 192 Кбит/сек
Каналы : 2 канала
Расположение каналов : Front: L R
Частота : 48,0 КГц
Битовая глубина : 16 бит
Метод сжатия : С потерями
Задержка видео : -664 мс.
Размер потока : 24,2 Мбайт (6%)
Меню
Общее
Полное имя : D:\Torrents.ru\Psevdonim Albanets_DVD9\VIDEO_TS\VTS_02_0.BUP
Формат : DVD Video
Профиль формата : Program
Размер файла : 24,0 Кбайт
Продолжительность : 46 с.
Режим общего битрейта : Переменный
Общий поток : 4222 бит/сек
Видео
Идентификатор : 224 (0xE0)
Формат : MPEG Video
Версия формата : Version 2
Продолжительность : 46 с.
Вид битрейта : Переменный
Ширина : 720 пикселей
Высота : 576 пикселей
Соотношение сторон : 4:3
Частота кадров : 25,000 кадров/сек
Стандарт вещания : PAL
Метод сжатия : С потерями
Текст
Идентификатор : 32 (0x20)
Формат : RLE
Формат/Информация : Run-length encoding
Битовая глубина : 2 бит
Язык : English
Меню #1
Продолжительность : 46 с.
00:00:00.000 : Chapter 1
00:00:00.480 : Chapter 2
00:00:00.960 : Chapter 3
00:00:01.440 : Chapter 4
00:00:01.920 : Chapter 5
00:00:02.400 : Chapter 6
00:00:02.880 : Chapter 7
00:00:03.360 : Chapter 8
00:00:03.840 : Chapter 9
00:00:04.320 : Chapter 10
00:00:04.800 : Chapter 11
00:00:05.280 : Chapter 12
00:00:05.760 : Chapter 13
00:00:06.240 : Chapter 14
00:00:06.720 : Chapter 15
00:00:07.200 : Chapter 16
00:00:07.680 : Chapter 17
00:00:08.160 : Chapter 18
00:00:08.640 : Chapter 19
00:00:09.120 : Chapter 20
00:00:09.600 : Chapter 21
00:00:10.080 : Chapter 22
00:00:10.560 : Chapter 23
00:00:11.040 : Chapter 24
00:00:11.520 : Chapter 25
00:00:12.000 : Chapter 26
00:00:12.480 : Chapter 27
00:00:12.960 : Chapter 28
00:00:13.440 : Chapter 29
00:00:13.920 : Chapter 30
00:00:14.400 : Chapter 31
00:00:14.880 : Chapter 32
00:00:15.360 : Chapter 33
00:00:15.840 : Chapter 34
00:00:16.320 : Chapter 35
00:00:16.800 : Chapter 36
00:00:17.280 : Chapter 37
00:00:17.760 : Chapter 38
00:00:18.240 : Chapter 39
00:00:18.720 : Chapter 40
00:00:19.200 : Chapter 41
00:00:19.680 : Chapter 42
00:00:20.160 : Chapter 43
00:00:20.640 : Chapter 44
00:00:21.120 : Chapter 45
00:00:21.600 : Chapter 46
00:00:22.080 : Chapter 47
00:00:22.560 : Chapter 48
00:00:23.040 : Chapter 49
00:00:23.520 : Chapter 50
00:00:24.000 : Chapter 51
00:00:24.480 : Chapter 52
00:00:24.960 : Chapter 53
00:00:25.440 : Chapter 54
00:00:25.920 : Chapter 55
00:00:26.400 : Chapter 56
00:00:26.880 : Chapter 57
00:00:27.360 : Chapter 58
00:00:27.840 : Chapter 59
00:00:28.320 : Chapter 60
00:00:28.800 : Chapter 61
00:00:29.280 : Chapter 62
00:00:29.760 : Chapter 63
00:00:30.240 : Chapter 64
00:00:30.720 : Chapter 65
00:00:31.200 : Chapter 66
00:00:31.680 : Chapter 67
00:00:32.160 : Chapter 68
00:00:32.640 : Chapter 69
00:00:33.120 : Chapter 70
00:00:33.600 : Chapter 71
00:00:34.080 : Chapter 72
00:00:34.560 : Chapter 73
00:00:35.040 : Chapter 74
00:00:35.520 : Chapter 75
00:00:36.000 : Chapter 76
00:00:36.480 : Chapter 77
00:00:36.960 : Chapter 78
00:00:37.440 : Chapter 79
00:00:37.920 : Chapter 80
00:00:38.400 : Chapter 81
00:00:38.880 : Chapter 82
00:00:39.360 : Chapter 83
00:00:39.840 : Chapter 84
00:00:40.320 : Chapter 85
00:00:40.800 : Chapter 86
00:00:41.280 : Chapter 87
00:00:41.760 : Chapter 88
00:00:42.240 : Chapter 89
00:00:42.720 : Chapter 90
00:00:43.200 : Chapter 91
00:00:43.680 : Chapter 92
00:00:44.160 : Chapter 93
00:00:44.640 : Chapter 94
00:00:45.120 : Chapter 95
00:00:45.600 : Chapter 96
00:00:46.080 : Chapter 97
List (Subtitles 4/3) : 0
List (Subtitles Wide) : 0
List (Subtitles Letterbox) : 0
List (Subtitles Pan&Scan) : 0
Меню #2
Продолжительность : 560 мс.
00:00:00.000 : Chapter 1
List (Subtitles 4/3) : 0
List (Subtitles Wide) : 0
List (Subtitles Letterbox) : 0
List (Subtitles Pan&Scan) : 0
Общее
Полное имя : D:\Torrents.ru\Psevdonim Albanets_DVD9\VIDEO_TS\VTS_02_0.IFO
Формат : DVD Video
Профиль формата : Program
Размер файла : 24,0 Кбайт
Продолжительность : 46 с.
Режим общего битрейта : Переменный
Общий поток : 4222 бит/сек
Видео
Идентификатор : 224 (0xE0)
Формат : MPEG Video
Версия формата : Version 2
Продолжительность : 46 с.
Вид битрейта : Переменный
Ширина : 720 пикселей
Высота : 576 пикселей
Соотношение сторон : 4:3
Частота кадров : 25,000 кадров/сек
Стандарт вещания : PAL
Метод сжатия : С потерями
Текст
Идентификатор : 32 (0x20)
Формат : RLE
Формат/Информация : Run-length encoding
Битовая глубина : 2 бит
Язык : English
Меню #1
Продолжительность : 46 с.
00:00:00.000 : Chapter 1
00:00:00.480 : Chapter 2
00:00:00.960 : Chapter 3
00:00:01.440 : Chapter 4
00:00:01.920 : Chapter 5
00:00:02.400 : Chapter 6
00:00:02.880 : Chapter 7
00:00:03.360 : Chapter 8
00:00:03.840 : Chapter 9
00:00:04.320 : Chapter 10
00:00:04.800 : Chapter 11
00:00:05.280 : Chapter 12
00:00:05.760 : Chapter 13
00:00:06.240 : Chapter 14
00:00:06.720 : Chapter 15
00:00:07.200 : Chapter 16
00:00:07.680 : Chapter 17
00:00:08.160 : Chapter 18
00:00:08.640 : Chapter 19
00:00:09.120 : Chapter 20
00:00:09.600 : Chapter 21
00:00:10.080 : Chapter 22
00:00:10.560 : Chapter 23
00:00:11.040 : Chapter 24
00:00:11.520 : Chapter 25
00:00:12.000 : Chapter 26
00:00:12.480 : Chapter 27
00:00:12.960 : Chapter 28
00:00:13.440 : Chapter 29
00:00:13.920 : Chapter 30
00:00:14.400 : Chapter 31
00:00:14.880 : Chapter 32
00:00:15.360 : Chapter 33
00:00:15.840 : Chapter 34
00:00:16.320 : Chapter 35
00:00:16.800 : Chapter 36
00:00:17.280 : Chapter 37
00:00:17.760 : Chapter 38
00:00:18.240 : Chapter 39
00:00:18.720 : Chapter 40
00:00:19.200 : Chapter 41
00:00:19.680 : Chapter 42
00:00:20.160 : Chapter 43
00:00:20.640 : Chapter 44
00:00:21.120 : Chapter 45
00:00:21.600 : Chapter 46
00:00:22.080 : Chapter 47
00:00:22.560 : Chapter 48
00:00:23.040 : Chapter 49
00:00:23.520 : Chapter 50
00:00:24.000 : Chapter 51
00:00:24.480 : Chapter 52
00:00:24.960 : Chapter 53
00:00:25.440 : Chapter 54
00:00:25.920 : Chapter 55
00:00:26.400 : Chapter 56
00:00:26.880 : Chapter 57
00:00:27.360 : Chapter 58
00:00:27.840 : Chapter 59
00:00:28.320 : Chapter 60
00:00:28.800 : Chapter 61
00:00:29.280 : Chapter 62
00:00:29.760 : Chapter 63
00:00:30.240 : Chapter 64
00:00:30.720 : Chapter 65
00:00:31.200 : Chapter 66
00:00:31.680 : Chapter 67
00:00:32.160 : Chapter 68
00:00:32.640 : Chapter 69
00:00:33.120 : Chapter 70
00:00:33.600 : Chapter 71
00:00:34.080 : Chapter 72
00:00:34.560 : Chapter 73
00:00:35.040 : Chapter 74
00:00:35.520 : Chapter 75
00:00:36.000 : Chapter 76
00:00:36.480 : Chapter 77
00:00:36.960 : Chapter 78
00:00:37.440 : Chapter 79
00:00:37.920 : Chapter 80
00:00:38.400 : Chapter 81
00:00:38.880 : Chapter 82
00:00:39.360 : Chapter 83
00:00:39.840 : Chapter 84
00:00:40.320 : Chapter 85
00:00:40.800 : Chapter 86
00:00:41.280 : Chapter 87
00:00:41.760 : Chapter 88
00:00:42.240 : Chapter 89
00:00:42.720 : Chapter 90
00:00:43.200 : Chapter 91
00:00:43.680 : Chapter 92
00:00:44.160 : Chapter 93
00:00:44.640 : Chapter 94
00:00:45.120 : Chapter 95
00:00:45.600 : Chapter 96
00:00:46.080 : Chapter 97
List (Subtitles 4/3) : 0
List (Subtitles Wide) : 0
List (Subtitles Letterbox) : 0
List (Subtitles Pan&Scan) : 0
Меню #2
Продолжительность : 560 мс.
00:00:00.000 : Chapter 1
List (Subtitles 4/3) : 0
List (Subtitles Wide) : 0
List (Subtitles Letterbox) : 0
List (Subtitles Pan&Scan) : 0
Общее
Полное имя : D:\Torrents.ru\Psevdonim Albanets_DVD9\VIDEO_TS\VTS_02_1.VOB
Формат : MPEG-PS
Размер файла : 12,0 Мбайт
Продолжительность : 89 мс.
Общий поток : 1133 Мбит/сек
Видео
Идентификатор : 224 (0xE0)
Формат : MPEG Video
Версия формата : Version 2
Профиль формата : [email protected]
Параметр BVOP формата : Нет
Параметр матрицы формата : Выборочная
Параметр GOP формата : N=1
Продолжительность : 89 мс.
Максимальный битрейт : 8000 Кбит/сек
Ширина : 720 пикселей
Высота : 576 пикселей
Соотношение сторон : 4:3
Частота кадров : 25,000 кадров/сек
Стандарт вещания : PAL
Цветовое пространство : YUV
Субдискретизация насыщенности : 4:2:0
Битовая глубина : 8 бит
Тип развёртки : Прогрессивная
Порядок развёртки : Верхнее поле первое
Метод сжатия : С потерями
Текст
Идентификатор : 189 (0xBD)-32 (0x20)
Формат : RLE
Формат/Информация : Run-length encoding
Режим смешивания : DVD-Video
Меню

Скриншоты

         
         
         

Обложка 300 dpi

       

Лицензия этого издания

http://www.ozon.ru/context/detail/id/2762792/?item=2891718
Other forum [Profile] [PM]
Display posts from previous:    
Reply to topic

The time now is: Today 17:29

All times are GMT + 3 Hours



You cannot post new topics in this forum
You cannot reply to topics in this forum
You cannot edit your posts in this forum
You cannot delete your posts in this forum
You cannot vote in polls in this forum
You cannot attach files in this forum
You cannot download files in this forum