Today is a free download without charge Download

Профессионал / Killer Elite (Гэри МакКендри) [2011 г., боевик, триллер, криминал, BDRip720p]

Reply to topic
 
Author
Message

sassad ®

Gender:

Longevity: 10 years

Posts: 1214

Location: Галич

Торрент-статистика

Post 02-Jan-2012 15:25

[Quote]

Профессионал / Killer Elite-- Год выпуска: 2011
Страна: США, Австралия
Жанр: боевик, триллер, криминал
Продолжительность: 116 мин. / 01:56
Перевод: Профессиональный(дублированный)-Режиссер: Гэри МакКендри
Продюссер: Майкл Буген, Тони Уинли, Стив Чэсмэн
Сценарий: Мэтт Шерринг, Ранульф Файнс
Бюджет: $70 000 000
Премьера в мире: 10 сентября 2011
R - Лицам до 17 лет обязательно присутствие взрослого
6.60 (18 133)

В ролях: Джейсон Стэтхэм, Клайв Оуэн, Роберт Де Ниро, Доминик Пурселл, Аден Янг, Ивонн Страховски, Бен Мендельсон, Адевале Акиннуойе-Агбадже, Дэвид Уайтели, Мэтью Нэйбл-Описание: Бывшему бойцу британских силовых структур приходится забыть о тихой размеренной жизни отставника, когда его лучший друг оказывается в опасности.-Качество: BDRip720p
Формат: MKV
Видео кодек: H.26x
Аудио кодек: AC3
Видео: MPEG-4 AVC, 5193 Кбит/с, 1280x536, 23.976 кадр/с
Аудио: Русский (AC3, 6 ch, 448 Кбит/с) / Английский (DTS, 6 ch, 1510 Кбит/с)


--

Инфо

Код:
Duration                                 : 1h 56mn
Bit rate                                 : 5 193 Kbps
Width                                    : 1 280 pixels
Height                                   : 536 pixels
Display aspect ratio                     : 2.40:1
Frame rate                               : 23.976 fps
Color space                              : YUV
Chroma subsampling                       : 4:2:0
Bit depth                                : 8 bits
Scan type                                : Progressive
Bits/(Pixel*Frame)                       : 0.316
Stream size                              : 4.12 GiB (71%)
Title                                    : Killer Elite (2011) - Released by IronClub.TV
Writing library                          : x264 core 120 r2120 0c7dab9
Encoding settings                        : cabac=1 / ref=5 / deblock=1:0:0 / analyse=0x3:0x113 / me=umh / subme=8 / psy=1 / psy_rd=1.00:0.00 / mixed_ref=1 / me_range=16 / chroma_me=1 / trellis=1 / 8x8dct=1 / cqm=0 / deadzone=21,11 / fast_pskip=1 / chroma_qp_offset=-2 / threads=12 / sliced_threads=0 / nr=0 / decimate=1 / interlaced=0 / bluray_compat=0 / constrained_intra=0 / bframes=3 / b_pyramid=2 / b_adapt=2 / b_bias=0 / direct=3 / weightb=1 / open_gop=0 / weightp=2 / keyint=240 / keyint_min=24 / scenecut=40 / intra_refresh=0 / rc_lookahead=50 / rc=2pass / mbtree=1 / bitrate=5193 / ratetol=1.0 / qcomp=0.60 / qpmin=0 / qpmax=69 / qpstep=4 / cplxblur=20.0 / qblur=0.5 / ip_ratio=1.40 / aq=1:1.00
Language                                 : English
Default                                  : Yes
Forced                                   : Yes
Audio #1
ID                                       : 2
Format                                   : AC-3
Format/Info                              : Audio Coding 3
Mode extension                           : CM (complete main)
Codec ID                                 : A_AC3
Duration                                 : 1h 56mn
Bit rate mode                            : Constant
Bit rate                                 : 448 Kbps
Channel(s)                               : 6 channels
Channel positions                        : Front: L C R, Side: L R, LFE
Sampling rate                            : 48.0 KHz
Bit depth                                : 16 bits
Compression mode                         : Lossy
Stream size                              : 374 MiB (6%)
Title                                    : DD5.1 @ 448 kbps, Dub R5
Language                                 : Russian
Default                                  : Yes
Forced                                   : Yes
Audio #2
ID                                       : 3
Format                                   : DTS
Format/Info                              : Digital Theater Systems
Codec ID                                 : A_DTS
Duration                                 : 1h 56mn
Bit rate mode                            : Constant
Bit rate                                 : 1 510 Kbps
Channel(s)                               : 6 channels
Channel positions                        : Front: L C R, Side: L R, LFE
Sampling rate                            : 48.0 KHz
Bit depth                                : 24 bits
Compression mode                         : Lossy
Stream size                              : 1.23 GiB (21%)
Title                                    : DTS 5.1 @ 1536 kbps
Language                                 : English
Default                                  : No
Forced                                   : No
Text #1
ID                                       : 4
Format                                   : UTF-8
Codec ID                                 : S_TEXT/UTF8
Codec ID/Info                            : UTF-8 Plain Text
Language                                 : Russian
Default                                  : No
Forced                                   : No
Text #2
ID                                       : 5
Format                                   : UTF-8
Codec ID                                 : S_TEXT/UTF8
Codec ID/Info                            : UTF-8 Plain Text
Language                                 : English
Default                                  : No
Forced                                   : No
Menu
00:00:00.000                             : en:00:00:00.000
00:06:11.580                             : en:00:06:11.580
00:12:40.385                             : en:00:12:40.385
00:18:18.222                             : en:00:18:18.222
00:24:33.389                             : en:00:24:33.389
00:30:06.972                             : en:00:30:06.972
00:36:41.324                             : en:00:36:41.324
00:41:01.417                             : en:00:41:01.417
00:46:36.293                             : en:00:46:36.293
00:51:37.052                             : en:00:51:37.052
00:57:32.532                             : en:00:57:32.532
01:02:14.272                             : en:01:02:14.272
01:07:04.896                             : en:01:07:04.896
01:12:39.981                             : en:01:12:39.981
01:20:23.652                             : en:01:20:23.652
01:26:27.474                             : en:01:26:27.474
01:32:30.628                             : en:01:32:30.628
01:41:02.807                             : en:01:41:02.807
01:46:07.278                             : en:01:46:07.278
01:50:26.203                             : en:01:50:26.203
--

Скриншоты

           

_________________
Other forum [Profile] [PM]
Similar theme
Forum Topic Author Torrent Replies Last Post
./templates/default/images/folder_dl.gif Обучающее видео Geekbrains | Профессия Разработчик .Net (2016) PCRec [H.264/720p-LQ] Omen
1 | 0

0 | 572

0

2015-07-26 12:00
Omen Latest
./templates/default/images/folder_dl.gif Техническая и научно-популярная литература [Журнал] Армейский Сборник. Научный практико-методический журнал для военных профессионалов [2008-2015, PDF, RUS] - Обновлено 15.08.2015 Omen
1 | 0

0 | 960

1

2015-08-16 18:04
Omen Latest
./templates/default/images/folder_dl.gif Обучающее видео Владилен Минин | Angular 8 с нуля до профессионала. Полное руководство (2019) PCRec [H.264/720p-LQ] Clavik
1 | 0

0 | 1708

3

2019-09-09 17:57
Clavik Latest
./templates/default/images/folder_dl.gif Обучающее видео Udemy | Python разработка - с нуля до профессионала. Python 3 (2019) PCRec [H.264/720p-LQ] Clavik
1 | 0

0 | 1255

0

2019-11-10 18:41
Clavik Latest
Display posts from previous:    
Reply to topic

The time now is: Today 20:36

All times are GMT + 3 Hours



You cannot post new topics in this forum
You cannot reply to topics in this forum
You cannot edit your posts in this forum
You cannot delete your posts in this forum
You cannot vote in polls in this forum
You cannot attach files in this forum
You cannot download files in this forum