Today is a free download without charge Download

Карамель / Серии: 1-40 из 40 (Флюза Фархшатова) [2011, Комедия, SATRip]

Reply to topic
 
Author
Message

nsa1977 ®

Gender:

Longevity: 11 years

Posts: 1470

Location: Пенза

Торрент-статистика

Post 01-Jan-2012 00:09

[Quote]

Карамель
Серии: 1-40 из 40


Год выпуска: 2011
Производство: ВайТ Медиа
Жанр: Комедия
Продолжительность: 00:45:00
Субтитры: Нет
Режиссёр: Флюза Фархшатова--В ролях: Алла Юганова, Виктор Добронравов, Михаил Полицеймако, Александр Константинов, Лиза Мартинес, Ольга Тумайкина, Александр Шпагин, Ольга Ефремова, Кирилл Рубцов, Георгий Сегал, Алёна Корнева--Описание: Как обрести настоящую любовь и, наконец-то, понять мужчин? Можно ли найти работу своей мечты и стать совершенно счастливой? На эти вопросы так долго не могла найти ответы наша главная героиня - Анна.
Она была наивной и доверчивой, хорошенькой и чуточку неуверенной в себе, ей не везло в любви, да и в карьере тоже. Но все изменилось, в один прекрасный день, когда Аня встретила таинственную незнакомку и получила от нее настоящий подарок судьбы – волшебную карамель.
Стоило только ей раскусить конфету - и тут же Анна начала слышать мысли всех окружающих её мужчин, которые бывают весьма занимательны, а иногда, так огорчительны.
Сможет ли Аня воспользоваться обретенным даром себе на пользу, или он принесет ей сплошные неприятности?--Доп.информация: Реклама отсутствует!- --Качество: SATRip
Формат: AVI (совместим с бытовыми плеерами)
Видео кодек: XviD
Аудио кодек: MP3
Видео: XviD, 704x400 (16:9), 25.000 fps, 1 419 Kbps (0.202 bit/pixel)
Аудио: MP3, 48.0 KHz, 2 ch, 128 Kbps, CBR-
-

MediaInfo

Код:
Общее
Полное имя                       : C:\Раздачи\Карамель\Карамель.01.avi
Формат                           : AVI
Формат/Информация                : Audio Video Interleave
Размер файла                     : 501 Мбайт
Продолжительность                : 45 м.
Общий поток                      : 1557 Кбит/сек
Программа кодирования            : VirtualDubMod 1.5.10.3 | www.virtualdub-fr.org || (build 2550/release)
Библиотека кодирования           : VirtualDubMod build 2550/release
Видео
Идентификатор                    : 0
Формат                           : MPEG-4 Visual
Профиль формата                  : Advanced [email protected]
Параметр BVOP формата            : 1
Параметр QPel формата            : Нет
Параметр GMC формата             : Без точки перехода
Параметр матрицы формата         : Default (MPEG)
Идентификатор кодека             : XVID
Идентификатор кодека/Подсказка   : XviD
Продолжительность                : 45 м.
Битрейт                          : 1419 Кбит/сек
Ширина                           : 704 пикселя
Высота                           : 400 пикселей
Соотношение сторон               : 16:9
Частота кадров                   : 25,000 кадров/сек
Цветовое пространство            : YUV
Субдискретизация насыщенности    : 4:2:0
Битовая глубина                  : 8 бит
Тип развёртки                    : Прогрессивная
Метод сжатия                     : С потерями
Бит/(Пиксели*Кадры)              : 0.202
Размер потока                    : 457 Мбайт (91%)
Библиотека кодирования           : XviD 64
Аудио
Идентификатор                    : 1
Формат                           : MPEG Audio
Версия формата                   : Version 1
Профиль формата                  : Layer 3
Идентификатор кодека             : 55
Идентификатор кодека/Подсказка   : MP3
Продолжительность                : 45 м.
Вид битрейта                     : Постоянный
Битрейт                          : 128 Кбит/сек
Каналы                           : 2 канала
Частота                          : 48,0 КГц
Метод сжатия                     : С потерями
Размер потока                    : 41,2 Мбайт (8%)
Выравнивание                     : Соединение по промежуткам
Продолжительность промежутка     : 40  мс. (1,00 видеокадр)
Время предзагрузки промежутка    : 504  мс.
Библиотека кодирования           : LAME3.98r
Настройки программы              : -m s -V 4 -q 2 -lowpass 17 -b 128
--          

_________________
Other forum [Profile] [PM]
Display posts from previous:    
Reply to topic

The time now is: Today 13:22

All times are GMT + 3 Hours



You cannot post new topics in this forum
You cannot reply to topics in this forum
You cannot edit your posts in this forum
You cannot delete your posts in this forum
You cannot vote in polls in this forum
You cannot attach files in this forum
You cannot download files in this forum