Today is a free download without charge Download

Сказка про лунный свет (Ирина Гурвич) [1968 г., мультфильм, DVB]

Reply to topic
 
Author
Message

Omen ®

Longevity: 7 years 11 months

Posts: 181087

Торрент-статистика

Post 21-Jun-2014 23:00

[Quote]

Сказка про лунный свет
Жанр: мультфильм
Год выпуска: 1985
Продолжительность: 00:07:59
Режиссёр: Ирина Гурвич
Описание: мультфильм о том, как расшалившись котенок разбил лампу, и пришлось ему собрать лунную пыль, чтобы посветить хозяину. ...
Доп. информация:

Трансляция спутникового канала: "Перец"
Качество видео: DVB
Формат видео: MPEG-PS
Видео: MPEG2 Video, 720x576, 25 fps, 4600 kbps
Аудио: MPEG Audio, 2 сh, 48 kHz, 192 kbps

MediaInfo

General
Complete name : D:\Сказка про лунный свет. (1968)_DVB by SLuMeP.mpg
Format : MPEG-PS
File size : 282 MiB
Duration : 7mn 59s
Overall bit rate mode : Variable
Overall bit rate : 4 930 Kbps
Video
ID : 224 (0xE0)
Format : MPEG Video
Format version : Version 2
Format profile : [email protected]
Format settings, BVOP : No
Format settings, Matrix : Custom
Format settings, GOP : Variable
Duration : 7mn 59s
Bit rate mode : Variable
Bit rate : 4 640 Kbps
Maximum bit rate : 15.0 Mbps
Width : 720 pixels
Height : 576 pixels
Display aspect ratio : 4:3
Frame rate : 25.000 fps
Standard : PAL
Color space : YUV
Chroma subsampling : 4:2:0
Bit depth : 8 bits
Scan type : Interlaced
Scan order : Top Field First
Compression mode : Lossy
Bits/(Pixel*Frame) : 0.447
Time code of first frame : 00:00:00:00
Time code source : Group of pictures header
Stream size : 265 MiB (94%)
Audio
ID : 192 (0xC0)
Format : MPEG Audio
Format version : Version 1
Format profile : Layer 2
Duration : 7mn 59s
Bit rate mode : Constant
Bit rate : 192 Kbps
Channel(s) : 2 channels
Sampling rate : 48.0 KHz
Compression mode : Lossy
Stream size : 11.0 MiB (4%)

Скриншоты


Other forum [Profile] [PM]
Display posts from previous:    
Reply to topic

The time now is: Today 18:49

All times are GMT + 3 Hours



You cannot post new topics in this forum
You cannot reply to topics in this forum
You cannot edit your posts in this forum
You cannot delete your posts in this forum
You cannot vote in polls in this forum
You cannot attach files in this forum
You cannot download files in this forum