Today is a free download without charge Download

Семь мам Семена Синебородько / Сiм мам Семена Синебородька (Людмила Ткачикова) [1992, мультфильм, DVB]

Reply to topic
 
Author
Message

Omen ®

Longevity: 7 years 11 months

Posts: 181087

Торрент-статистика

Post 21-Jun-2014 17:58

[Quote]

Семь мам Семена Синебородько / Сiм мам Семена Синебородька
Жанр: мультфильм
Год выпуска: 1992
Продолжительность: 00:09:47
Режиссёр: Людмила Ткачикова
Описание: мультфильм для детей по сказке Григория Остера. Однажды от неряхи и лентяя сына сбежала мама ...
Трансляция спутникового канала: "Перец"
Качество видео: DVB
Формат видео: MPEG-PS
Видео: MPEG2 Video, 720x576, 25 fps, 4300 kbps
Аудио: MPEG Audio, 2 сh, 48 kHz, 192 kbps

MediaInfo

General
Complete name : D:\Семь мам Семена Синебородько. (1992)_DVB by SLuMeP.mpg
Format : MPEG-PS
File size : 319 MiB
Duration : 9mn 47s
Overall bit rate mode : Variable
Overall bit rate : 4 556 Kbps
Video
ID : 224 (0xE0)
Format : MPEG Video
Format version : Version 2
Format profile : [email protected]
Format settings, BVOP : No
Format settings, Matrix : Custom
Format settings, GOP : Variable
Duration : 9mn 47s
Bit rate mode : Variable
Bit rate : 4 274 Kbps
Maximum bit rate : 15.0 Mbps
Width : 720 pixels
Height : 576 pixels
Display aspect ratio : 4:3
Frame rate : 25.000 fps
Standard : PAL
Color space : YUV
Chroma subsampling : 4:2:0
Bit depth : 8 bits
Scan type : Interlaced
Scan order : Top Field First
Compression mode : Lossy
Bits/(Pixel*Frame) : 0.412
Time code of first frame : 00:00:00:00
Time code source : Group of pictures header
Stream size : 299 MiB (94%)
Audio
ID : 192 (0xC0)
Format : MPEG Audio
Format version : Version 1
Format profile : Layer 2
Duration : 9mn 47s
Bit rate mode : Constant
Bit rate : 192 Kbps
Channel(s) : 2 channels
Sampling rate : 48.0 KHz
Compression mode : Lossy
Stream size : 13.4 MiB (4%)

Скриншоты


Other forum [Profile] [PM]
Display posts from previous:    
Reply to topic

The time now is: Today 03:44

All times are GMT + 3 Hours



You cannot post new topics in this forum
You cannot reply to topics in this forum
You cannot edit your posts in this forum
You cannot delete your posts in this forum
You cannot vote in polls in this forum
You cannot attach files in this forum
You cannot download files in this forum