Today is a free download without charge Download

Не бойся темноты / Don't Be Afraid of the Dark (Трой Никси) [2010 г., ужасы, фэнтези, триллер, BDRip720p]

Reply to topic
 
Author
Message

Delia ®

Gender:

Longevity: 10 years

Posts: 1821

Торрент-статистика

Post 30-Dec-2011 17:00

[Quote]

Не бойся темноты / Don't Be Afraid of the Dark«Страх - ничто, просто верь»--
Год выпуска: 2010
Страна: США , Мексика , Австралия
Жанр: ужасы, фэнтези, триллер, ...
Продолжительность: 01:39:32
Перевод: Профессиональный (дублированный)
Субтитры: Russian, Russian R5 , English, English SDH (srt)
Режиссер: Трой Никси
Сценарий: Гильермо дель Торо, Мэттью Роббинс, Найджел Маккинд
Продюсер: Марк Джонсон, Гильермо дель Торо, Мелани Крис, ...
Оператор: Оливер Стейплтон
Композитор: Марко Белтрами, Бак Сандерс
Художник: Роджер Форд, Люсинда Томсон, Венди Чак, ...
Монтаж: Джилл Билкок- В ролях: Кэти Холмс (Katie Holmes), Гай Пирс (Guy Pearce), Бэйли Мэдисон (Bailee Madison), Джек Томпсон (Jack Thompson), Брюс Глисон (Bruce Gleeson), Эдвина Ричард (Edwina Ritchard), Гарри МакДональд (Garry McDonald), Кэролин Шекспир-Аллен (Carolyn Shakespeare-Allen), Джулия Блейк (Julia Blake), Дэвид Точчи (David Tocci), Lance Drisdale, Николас Белл (Nicholas Bell), Либби Готт (Libby Gott), Джеймс Маккэй (James Mackay), Эмилия Бёрнс (Emelia Burns), Алан Дэйл (Alan Dale), Труди Хелльер (Trudy Hellier), Terry Kenwrick, Грант Пиро (Grant Piro), Тодд МакДональд (Todd MacDonald)-Дублёры: Татьяна Шитова (Kim), Даниил Эльдаров (Alex), Маша Емельянова (Sally), Борис Быстров (Harris), Василий Дахненко (Psychiatrist), Михаил Тихонов (Librarian), Валерий Сторожик (Charles Jacoby).-Описание: Салли Хёрст — одинокая замкнутая девочка, которая приезжает на Род Айленд, чтобы пожить со своим отцом и его девушкой в старинном особняке девятнадцатого века, который они реставрируют. Исследуя обветшавший дом, Салли находит потайной подвал, куда никто не заглядывал с момента загадочного исчезновения архитектора особняка, произошедшего больше века назад. Сама того не желая, Салли выпускает на свободу древние порождения тьмы, которые собираются затащить ее в страшную бездну, скрывающуюся под полом старого дома. Теперь ей предстоит убедить Алекса и Ким, что это не плод ее фантазии — пока отталкивающие существа не поглотили их всех.-Рейтинг MPAA: -- --Качество: BDRip
Формат: MKV
Видео кодек: AVC
Аудио кодеk: AC3
Видео: 1280x692 (1.850:1), 23.976 fps, AVC, 4 054 Kbps
Аудио: Аудио #1: AC3, 448 Kbps, 48.0 KHz, 6 ch RUS Dub
Аудио #2: AC3, 448 Kbps, 48.0 KHz, 6 ch ENG Dub

МедиаИнфо

Код:
General
Complete name                    : Don't Be Afraid of the Dark 2010 .BDRip720p-F.HD.mkv
Format                           : Matroska
File size                        : 3.51 GiB
Duration                         : 1h 39mn
Overall bit rate                 : 5 051 Kbps
Encoded date                     : UTC 2012-03-23 19:24:00
Writing application              : mkvmerge v5.1.0 ('And so it goes') built on Nov 28 2011 23:58:28
Writing library                  : libebml v1.2.3 + libmatroska v1.3.0
Video
ID                               : 1
Format                           : AVC
Format/Info                      : Advanced Video Codec
Format profile                   : [email protected]
Format settings, CABAC           : Yes
Format settings, ReFrames        : 9 frames
Muxing mode                      : Container [email protected]
Codec ID                         : V_MPEG4/ISO/AVC
Duration                         : 1h 39mn
Bit rate                         : 4 054 Kbps
Width                            : 1 280 pixels
Height                           : 692 pixels
Display aspect ratio             : 1.850
Frame rate                       : 23.976 fps
Color space                      : YUV
Chroma subsampling               : 4:2:0
Bit depth                        : 8 bits
Scan type                        : Progressive
Bits/(Pixel*Frame)               : 0.191
Stream size                      : 2.82 GiB (80%)
Writing library                  : x264 core 120 r2120 0c7dab9
Encoding settings                : cabac=1 / ref=9 / deblock=1:-3:-3 / analyse=0x3:0x113 / me=umh / subme=11 / psy=1 / psy_rd=1.05:0.15 / mixed_ref=1 / me_range=48 / chroma_me=1 / trellis=2 / 8x8dct=1 / cqm=0 / deadzone=21,11 / fast_pskip=0 / chroma_qp_offset=-3 / threads=6 / sliced_threads=0 / nr=0 / decimate=0 / interlaced=0 / bluray_compat=0 / constrained_intra=0 / bframes=9 / b_pyramid=2 / b_adapt=2 / b_bias=0 / direct=1 / weightb=1 / open_gop=0 / weightp=2 / keyint=240 / keyint_min=23 / scenecut=40 / intra_refresh=0 / rc_lookahead=80 / rc=crf / mbtree=1 / crf=18.9 / qcomp=0.70 / qpmin=0 / qpmax=69 / qpstep=4 / vbv_maxrate=50000 / vbv_bufsize=62500 / crf_max=0.0 / nal_hrd=none / ip_ratio=1.40 / aq=2:0.80
Audio #1
ID                               : 2
Format                           : AC-3
Format/Info                      : Audio Coding 3
Mode extension                   : CM (complete main)
Codec ID                         : A_AC3
Duration                         : 1h 39mn
Bit rate mode                    : Constant
Bit rate                         : 448 Kbps
Channel(s)                       : 6 channels
Channel positions                : Front: L C R, Side: L R, LFE
Sampling rate                    : 48.0 KHz
Bit depth                        : 16 bits
Stream size                      : 319 MiB (9%)
Language                         : Russian
Audio #2
ID                               : 3
Format                           : AC-3
Format/Info                      : Audio Coding 3
Mode extension                   : CM (complete main)
Codec ID                         : A_AC3
Duration                         : 1h 39mn
Bit rate mode                    : Constant
Bit rate                         : 448 Kbps
Channel(s)                       : 6 channels
Channel positions                : Front: L C R, Side: L R, LFE
Sampling rate                    : 48.0 KHz
Bit depth                        : 16 bits
Stream size                      : 319 MiB (9%)
Text #1
ID                               : 4
Format                           : UTF-8
Codec ID                         : S_TEXT/UTF8
Codec ID/Info                    : UTF-8 Plain Text
Language                         : Russian
Text #2
ID                               : 5
Format                           : UTF-8
Codec ID                         : S_TEXT/UTF8
Codec ID/Info                    : UTF-8 Plain Text
Title                            : R5.
Language                         : Russian
Text #3
ID                               : 6
Format                           : UTF-8
Codec ID                         : S_TEXT/UTF8
Codec ID/Info                    : UTF-8 Plain Text
Text #4
ID                               : 7
Format                           : UTF-8
Codec ID                         : S_TEXT/UTF8
Codec ID/Info                    : UTF-8 Plain Text
Title                            : SDH

Знаете ли Вы, что...

» Фильм основан на телепьесе Найджела Макнида.


Скриншоты

       
     

_________________
Человек – это канат, натянутый между животным и сверхчеловеком, – канат над пропастью.
В человеке ценно то, что он мост, а не цель. Фридрих Ницше
Other forum [Profile] [PM]
Display posts from previous:    
Reply to topic

The time now is: Today 10:16

All times are GMT + 3 Hours



You cannot post new topics in this forum
You cannot reply to topics in this forum
You cannot edit your posts in this forum
You cannot delete your posts in this forum
You cannot vote in polls in this forum
You cannot attach files in this forum
You cannot download files in this forum