Today is a free download without charge Download

Выкрутасы (Леван Габриадзе) [2010, Мелодрама, комедия, семейный, спорт, HDRip]

Reply to topic
 
Author
Message

Relizer ®

Gender:

Longevity: 9 years

Posts: 233

Торрент-статистика

Post 30-Dec-2011 14:16

[Quote]

Выкрутасы-«Почему у этих М всё всегда через Ж?»- Год выпуска: 2010
Премьера 17 февраля 2011
Жанр: мелодрама, комедия, семейный, спорт
Продолжительность: 01:40:47
Cубтитры: Нет-Режиссёр: Леван Габриадзе
В ролях: Константин Хабенский, Милла Йовович, Иван Ургант, Сергей Гармаш, Владимир Меньшов, Ольга Тумайкина, Галина Логинова, Сергей Селин, Сергей Шеховцов, Александр Кержаков-Описание: Слава Колотилов, простой школьный учитель из сонного приморского городка с небанальным названием «Пальчики», приехал покорять Москву с рукописью романа в руках, а покорил… красавицу Надю. Уже близится свадьба, ресторан заказан и гости приглашены, но цепкие Пальчики не дают Славе вырваться к суженой, подстраивая череду «непреодолимых обстоятельств». Вот и приходится Славе выкручиваться, рассказывая Наде по телефону небылицы о страшных происшествиях и катастрофах. А в далёкой Москве в это время Надя отбивает атаки своего бывшего ухажера Дани, готового пойти на любые выкрутасы, лишь бы вернуть себе невесту…-Качество: HDRip - Рип с BDRip 720p
Формат: AVI
Видео кодек: XviD
Аудио кодек: MP3
Видео: 688x288 (2.39:1), 23.976 fps, XviD build 50 ~895 kbps avg, 0.19 bit/pixel
Аудио - : 48 kHz, MPEG Layer 3, 2 ch, ~128.00 kbps avg- -

Знаете ли вы, что...

  • Мама Миллы Йовович, русская актриса Галина Логинова в фильме «Выкрутасы» сыграла её маму.
  • Милла Йовович настояла на том, чтобы самой озвучить свою роль по-русски, и сама спела песню «Свадьба» («... а эта свадьба, свадьба, свадьба пела и плясала, и крылья эту свадьбу вдаль несли»), прежде всего известную российским зрителям по канонической версии в исполнении Муслима Магомаева.
  • Первоначально проект назывался «Колотилов».
  • В сцене в больнице была использована съёмочная площадка сериала «Интерны».

MediaInfo

Код:
General
Complete name                    : D:\Downloads\Vykrutasy.2010.HDRip.XviD-denashekkk.avi
Format                           : AVI
Format/Info                      : Audio Video Interleave
File size                        : 745 MiB
Duration                         : 1h 40mn
Overall bit rate                 : 1 033 Kbps
Writing application              : VirtualDubMod 1.5.10.3 | www.virtualdub-fr.org || (build 2550/release)
Writing library                  : VirtualDubMod build 2550/release
Video
ID                               : 0
Format                           : MPEG-4 Visual
Format profile                   : Advanced [email protected]
Format settings, BVOP            : 1
Format settings, QPel            : No
Format settings, GMC             : No warppoints
Format settings, Matrix          : Default (MPEG)
Codec ID                         : XVID
Codec ID/Hint                    : XviD
Duration                         : 1h 40mn
Bit rate                         : 895 Kbps
Width                            : 688 pixels
Height                           : 288 pixels
Display aspect ratio             : 2.35:1
Frame rate                       : 23.976 fps
Color space                      : YUV
Chroma subsampling               : 4:2:0
Bit depth                        : 8 bits
Scan type                        : Progressive
Compression mode                 : Lossy
Bits/(Pixel*Frame)               : 0.188
Stream size                      : 646 MiB (87%)
Writing library                  : XviD 1.2.1 (UTC 2008-12-04)
Audio
ID                               : 1
Format                           : MPEG Audio
Format version                   : Version 1
Format profile                   : Layer 3
Codec ID                         : 55
Codec ID/Hint                    : MP3
Duration                         : 1h 40mn
Bit rate mode                    : Constant
Bit rate                         : 128 Kbps
Channel(s)                       : 2 channels
Sampling rate                    : 48.0 KHz
Compression mode                 : Lossy
Stream size                      : 92.3 MiB (12%)
Alignment                        : Aligned on interleaves
Interleave, duration             : 42 ms (1.00 video frame)
Interleave, preload duration     : 504 ms
Writing library                  : LAME3.98r
Encoding settings                : -m s -V 4 -q 2 -lowpass 17 -b 128

Скриншоты

     

_________________
Хк Локомотив #52# Макс ты был моим замечательным другом, пусть земля будет тебе пухом.. #52#07/09/2011- Обращаться с девочкой надо аккуратно, как с ёлочкой...Вырубить и отнести домой:)
Other forum [Profile] [PM]
Display posts from previous:    
Reply to topic

The time now is: Today 08:21

All times are GMT + 3 Hours



You cannot post new topics in this forum
You cannot reply to topics in this forum
You cannot edit your posts in this forum
You cannot delete your posts in this forum
You cannot vote in polls in this forum
You cannot attach files in this forum
You cannot download files in this forum